[neoHEVC] Natsume's Book of Friends / Natsume Yuujinchou San [Season 3] [BD 1080p x265 HEVC AAC]

Category:
Date:
2020-08-02 13:11 UTC
Submitter:
Seeders:
10
Information:
Leechers:
2
File size:
2.6 GiB
Completed:
115
Info hash:
a516ca48bcc14a8096625cc88452fb886eac1a7e
![](https://i.imgur.com/geEFUkn.png) *Join **[Discord](https://discord.gg/KYKYZUh)** for Current Projects, Encode-Requests and Seed-Request in case of no available seeds.* **Natsume's Book of Friends / Natsume Yuujinchou San [Season 3]** *with `Jpn Dub` and `Eng Subs` in `1080p HEVC`* Reencode of [CyC] (x264 AVC FLAC) to (x265 HEVC AAC). Ⓜ️ [Natsume's Book of Friends / Natsume Yuujinchou San [Season 3] on MAL](https://myanimelist.net/anime/10379/Natsume_Yuujinchou_San) --- **Related Releases:** 1️⃣ [Season 1: Natsume Yuujinchou](https://nyaa.si/view/1267009) 2️⃣ [Season 2: Zoku Natsume Yuujinchou](https://nyaa.si/view/1267243) 4️⃣ [Season 4: Natsume Yuujinchou Shi](https://nyaa.si/view/1268384) `Season 5, 6 and the Movie will follow during the next couple days.` *Coming Soon:* 5️⃣ [Season 5: Check back here during the next couple days.]() 6️⃣ [Season 6: Check back here during the next couple days.]() ▶️ [Movie: Check back here during the next couple days.]() --- **Synopsis** Natsume Yuujinchou San follows Takashi Natsume, a boy who is able to see youkai. Natsume and his bodyguard Madara, nicknamed Nyanko-sensei, continue on their quest to release youkai from their contracts in the "Book of Friends." Natsume comes to terms with his ability to see youkai and stops thinking of it as a curse. As he spends more time with his human and youkai friends, he realizes how much he values them both and decides he doesn't have to choose between the spirit and human worlds to be happy. ![](https://i.imgur.com/fswVtTm.png) --- **Comparison** (avc: source, hevc: encode) *Open links, toggle with mouseclick and check title.* [![](https://i.imgur.com/hHnByjI.png)](https://slow.pics/c/V6AT7NFu) [![](https://i.imgur.com/sMNLdCd.png)](https://slow.pics/c/5FbZvVRO) [![](https://i.imgur.com/JLW25fU.png)](https://slow.pics/c/vOzngTow) --- **Source** 🗃️ Video, Audio and Subs: [CyC] https://nyaa.si/view/1018695 💬 *Subtitles Info: [NoGrp] - Format `ASS`* --- **Media Info** ``` General Unique ID : 178342600014531541213450280012727685773 (0x862B890E30DFCD7547B7DFA6916B928D) Complete name : Natsume's Book of Friends (San) - S03E01.mkv Format : Matroska Format version : Version 4 File size : 210 MiB Duration : 24 min 17 s Overall bit rate : 1 210 kb/s Movie name : Natsume's Book of Friends (San) - S03E01 Encoded date : UTC 2020-07-26 11:57:57 Writing application : mkvmerge v47.0.0 ('Black Flag') 64-bit Writing library : libebml v1.3.10 + libmatroska v1.5.2 / Lavf58.29.100 Attachments : VRINDAB.TTF / Square_Engine_150_Simplex.ttf / Square_Kids.ttf / ArnoPro-Regular.otf / BAARS___.TTF / EFN_OknoFont.ttf / FTLTLT_0.TTF / MKAbel.ttf Video ID : 1 Format : HEVC Format/Info : High Efficiency Video Coding Format profile : Main 10@L4@High Codec ID : V_MPEGH/ISO/HEVC Duration : 24 min 17 s Bit rate : 968 kb/s Width : 1 920 pixels Height : 1 080 pixels Display aspect ratio : 16:9 Frame rate mode : Constant Frame rate : 23.976 (24000/1001) FPS Color space : YUV Chroma subsampling : 4:2:0 Bit depth : 10 bits Bits/(Pixel*Frame) : 0.019 Stream size : 168 MiB (80%) Writing library : x265 3.2.1+1-b5c86a64bbbe:[Windows][GCC 9.2.0][64 bit] 10bit Encoding settings : cpuid=1111039 / frame-threads=2 / numa-pools=4 / wpp / no-pmode / no-pme / no-psnr / no-ssim / log-level=2 / input-csp=1 / input-res=1920x1080 / interlace=0 / total-frames=0 / level-idc=40 / high-tier=1 / uhd-bd=0 / ref=5 / no-allow-non-conformance / no-repeat-headers / annexb / no-aud / no-hrd / info / hash=0 / no-temporal-layers / open-gop / min-keyint=24 / keyint=240 / gop-lookahead=0 / bframes=8 / b-adapt=2 / b-pyramid / bframe-bias=0 / rc-lookahead=25 / lookahead-slices=4 / scenecut=40 / radl=0 / no-splice / no-intra-refresh / ctu=64 / min-cu-size=8 / rect / no-amp / max-tu-size=32 / tu-inter-depth=1 / tu-intra-depth=1 / limit-tu=0 / rdoq-level=2 / dynamic-rd=0.00 / no-ssim-rd / signhide / no-tskip / nr-intra=0 / nr-inter=0 / no-constrained-intra / strong-intra-smoothing / max-merge=3 / limit-refs=3 / limit-modes / me=3 / subme=3 / merange=57 / temporal-mvp / no-hme / weightp / no-weightb / no-analyze-src-pics / deblock=0:0 / sao / no-sao-non-deblock / rd=4 / selective-sao=4 / no-early-skip / rskip / no-fast-intra / no-tskip-fast / no-cu-lossless / no-b-intra / no-splitrd-skip / rdpenalty=0 / psy-rd=0.00 / psy-rdoq=1.00 / no-rd-refine / no-lossless / cbqpoffs=0 / crqpoffs=0 / rc=crf / crf=21.0 / qcomp=0.60 / qpstep=4 / stats-write=0 / stats-read=0 / vbv-maxrate=30000 / vbv-bufsize=30000 / vbv-init=0.9 / crf-max=0.0 / crf-min=0.0 / ipratio=1.40 / pbratio=1.30 / aq-mode=3 / aq-strength=0.80 / cutree / zone-count=0 / no-strict-cbr / qg-size=32 / no-rc-grain / qpmax=69 / qpmin=0 / no-const-vbv / sar=1 / overscan=0 / videoformat=5 / range=0 / colorprim=1 / transfer=1 / colormatrix=1 / chromaloc=0 / display-window=0 / cll=0,0 / min-luma=0 / max-luma=1023 / log2-max-poc-lsb=8 / vui-timing-info / vui-hrd-info / slices=1 / no-opt-qp-pps / no-opt-ref-list-length-pps / no-multi-pass-opt-rps / scenecut-bias=0.05 / no-opt-cu-delta-qp / no-aq-motion / no-hdr / no-hdr-opt / no-dhdr10-opt / no-idr-recovery-sei / analysis-reuse-level=5 / scale-factor=0 / refine-intra=0 / refine-inter=0 / refine-mv=1 / refine-ctu-distortion=0 / no-limit-sao / ctu-info=0 / no-lowpass-dct / refine-analysis-type=0 / copy-pic=1 / max-ausize-factor=1.0 / no-dynamic-refine / no-single-sei / no-hevc-aq / no-svt / no-field / qp-adaptation-range=1.00 Default : Yes Forced : No Color range : Limited Color primaries : BT.709 Transfer characteristics : BT.709 Matrix coefficients : BT.709 Audio ID : 2 Format : AAC LC Format/Info : Advanced Audio Codec Low Complexity Codec ID : A_AAC-2 Duration : 24 min 17 s Bit rate : 233 kb/s Channel(s) : 2 channels Channel layout : L R Sampling rate : 48.0 kHz Frame rate : 46.875 FPS (1024 SPF) Compression mode : Lossy Delay relative to video : -43 ms Stream size : 40.6 MiB (19%) Title : Stereo - JPN (AAC) Language : Japanese Default : Yes Forced : No Text ID : 3 Format : ASS Codec ID : S_TEXT/ASS Codec ID/Info : Advanced Sub Station Alpha Duration : 24 min 14 s Bit rate : 180 b/s Count of elements : 542 Compression mode : Lossless Stream size : 32.0 KiB (0%) Title : Dialog - ENG (ASS) Language : English Default : No Forced : No Menu 00:00:00.000 : :Opening 00:01:31.049 : :Part A 00:11:15.049 : :Part B 00:22:30.975 : :Ending 00:24:01.023 : :Preview ```

File list

  • [neoHEVC] Natsume's Book of Friends - Natsume Yuujinchou San [Season 3] [BD 1080p x265 HEVC AAC]
    • Natsume's Book of Friends (San) - S03E01.mkv (210.1 MiB)
    • Natsume's Book of Friends (San) - S03E02.mkv (212.4 MiB)
    • Natsume's Book of Friends (San) - S03E03.mkv (229.7 MiB)
    • Natsume's Book of Friends (San) - S03E04.mkv (205.4 MiB)
    • Natsume's Book of Friends (San) - S03E05.mkv (179.3 MiB)
    • Natsume's Book of Friends (San) - S03E06.mkv (209.0 MiB)
    • Natsume's Book of Friends (San) - S03E07.mkv (220.9 MiB)
    • Natsume's Book of Friends (San) - S03E08.mkv (204.1 MiB)
    • Natsume's Book of Friends (San) - S03E09.mkv (201.4 MiB)
    • Natsume's Book of Friends (San) - S03E10.mkv (192.9 MiB)
    • Natsume's Book of Friends (San) - S03E11.mkv (248.8 MiB)
    • Natsume's Book of Friends (San) - S03E12.mkv (166.2 MiB)
    • Natsume's Book of Friends (San) - S03E13.mkv (221.9 MiB)
nice permissions on discord for everyone XDD
Just for the heads up, CyC's Natsume Go and Roku use Commie edited subs, so they are much much worse compared side by side with other translations. E.g. "tanuki" in S6E1 is put as "racoon dog", "inu no kai" as "party of dogs" (should be "the dog's circle") ... It's not enough to just correct "demon" for "youkai" in Commie scripts, there are more unnecessary edits done by them, like randomly gluing or splitting two lines, omitting the natural breaks, causing trouble in comprehension. Their edits just make no sense most of the time. For the movie I would say just grab APTA-Scans lol.
Personally I collect tlacatlc6's S1-S6 720p releases and OVAs from RUELL-Next https://nyaa.si/view/523658 and Live-eviL https://nyaa.si/view/1244224 , plus REVO's https://nyaa.si/view/292411 and APTA-Scan's movie, so the total size is 33 GiB, already much smaller than a full CyC collection, that were like 110 GiB.