[neoHEVC] Natsume's Book of Friends [Season 2] [BD 1080p x265 HEVC AAC] Zoku Natsume Yuujinchou

Category:
Date:
2020-07-31 14:03 UTC
Submitter:
Seeders:
45
Information:
Leechers:
6
File size:
2.6 GiB
Completed:
6150
Info hash:
6e42a6d8375ce79b4f856d71a95cccbffbe44976
![](https://i.imgur.com/geEFUkn.png) *Join **[Discord](https://discord.gg/KYKYZUh)** for Current Projects, Encode-Requests and Seed-Request in case of no available seeds.* **Natsume's Book of Friends / Zoku Natsume Yuujinchou [Season 2]** *with `Jpn Dub` and `Eng Subs` in `BD 1080p HEVC`* Reencode of [CyC] (x264 AVC FLAC) to (x265 HEVC AAC). ![](https://i.imgur.com/4iegWLL.png) **[Trailer](https://www.youtube.com/watch?v=mea4xITAo_4)** ![](https://i.imgur.com/3UxGuWB.png) ![](https://i.imgur.com/ZCtSawZ.png) **[MyAnimeList](https://myanimelist.net/anime/5300/Zoku_Natsume_Yuujinchou)** --- **Related Releases:** 1️⃣ [Season 1: Natsume Yuujinchou](https://nyaa.si/view/1267009) 3️⃣ [Season 3: Natsume Yuujinchou San](https://nyaa.si/view/1268047) 4️⃣ [Season 4: Natsume Yuujinchou Shi](https://nyaa.si/view/1268384) 5️⃣ [Season 5: Natsume Yuujinchou Go](https://nyaa.si/view/1268681) 6️⃣ [Season 6: Natsume Yuujinchou Roku](https://nyaa.si/view/1268976) ▶️ [Movie: Ephemeral Bond / Utsusemi ni Musubu](https://nyaa.si/view/1269182) ▶️ [Movie: Ishi Okoshi to Ayashiki Raihousha ](https://nyaa.si/view/1401421) --- **Synopsis** As with its prequel, Zoku Natsume Yuujinchou is about Takashi Natsume, a boy who has had the ability to see youkai since he was young, and his bodyguard youkai Madara, nicknamed Nyanko-sensei. Natsume attempts to return names written in his "Book of Friends" (which he inherited from his grandmother Reiko) to youkai in his village. Throughout these adventures, he meets some youkai that are friendly, some that want to steal the Book, and some that want to kill him, as Natsume learns about himself and his relationship with these mysterious beings along the way. ![](https://i.imgur.com/Zsw3vvG.png) --- **Comparison** (avc: source, hevc: encode) *Open links, toggle with mouseclick and check title.* [![](https://i.imgur.com/Z9RN3Mh.png)](https://slow.pics/c/GtiAqkSc) [![](https://i.imgur.com/GC7uKKf.png)](https://slow.pics/c/rIWhd9qc) [![](https://i.imgur.com/0eBu0Zr.png)](https://slow.pics/c/84GP3FKh) --- **Source** ?️ Video, Audio and Subs: [CyC] https://nyaa.si/view/1018356 ? *Subtitles Info: [tlacatlc6] - Format `ASS`* --- **Media Info** ``` General Unique ID : 189742917983954439979341130688838550732 (0x8EBF2820A43E5318DE4E3D33D400C4CC) Complete name : Natsume's Book of Friends (Zoku) - S02E01.mkv Format : Matroska Format version : Version 4 File size : 197 MiB Duration : 23 min 52 s Overall bit rate : 1 155 kb/s Movie name : Natsume's Book of Friends (Zoku) - S02E01 Encoded date : UTC 2020-07-26 11:46:21 Writing application : mkvmerge v47.0.0 ('Black Flag') 64-bit Writing library : libebml v1.3.10 + libmatroska v1.5.2 / Lavf58.29.100 Attachments : Buda-Light.ttf / EFN_OknoFont.ttf / FTLTLT_0.TTF / MKAbel.ttf / Square_Kids.ttf / BAARS___.TTF Video ID : 1 Format : HEVC Format/Info : High Efficiency Video Coding Format profile : Main 10@L4@High Codec ID : V_MPEGH/ISO/HEVC Duration : 23 min 52 s Bit rate : 908 kb/s Width : 1 920 pixels Height : 1 080 pixels Display aspect ratio : 16:9 Frame rate mode : Constant Frame rate : 23.976 (24000/1001) FPS Color space : YUV Chroma subsampling : 4:2:0 Bit depth : 10 bits Bits/(Pixel*Frame) : 0.018 Stream size : 155 MiB (79%) Writing library : x265 3.2.1+1-b5c86a64bbbe:[Windows][GCC 9.2.0][64 bit] 10bit Encoding settings : cpuid=1111039 / frame-threads=2 / numa-pools=4 / wpp / no-pmode / no-pme / no-psnr / no-ssim / log-level=2 / input-csp=1 / input-res=1920x1080 / interlace=0 / total-frames=0 / level-idc=40 / high-tier=1 / uhd-bd=0 / ref=5 / no-allow-non-conformance / no-repeat-headers / annexb / no-aud / no-hrd / info / hash=0 / no-temporal-layers / open-gop / min-keyint=24 / keyint=240 / gop-lookahead=0 / bframes=8 / b-adapt=2 / b-pyramid / bframe-bias=0 / rc-lookahead=25 / lookahead-slices=4 / scenecut=40 / radl=0 / no-splice / no-intra-refresh / ctu=64 / min-cu-size=8 / rect / no-amp / max-tu-size=32 / tu-inter-depth=1 / tu-intra-depth=1 / limit-tu=0 / rdoq-level=2 / dynamic-rd=0.00 / no-ssim-rd / signhide / no-tskip / nr-intra=0 / nr-inter=0 / no-constrained-intra / strong-intra-smoothing / max-merge=3 / limit-refs=3 / limit-modes / me=3 / subme=3 / merange=57 / temporal-mvp / no-hme / weightp / no-weightb / no-analyze-src-pics / deblock=0:0 / sao / no-sao-non-deblock / rd=4 / selective-sao=4 / no-early-skip / rskip / no-fast-intra / no-tskip-fast / no-cu-lossless / no-b-intra / no-splitrd-skip / rdpenalty=0 / psy-rd=0.00 / psy-rdoq=1.00 / no-rd-refine / no-lossless / cbqpoffs=0 / crqpoffs=0 / rc=crf / crf=21.0 / qcomp=0.60 / qpstep=4 / stats-write=0 / stats-read=0 / vbv-maxrate=30000 / vbv-bufsize=30000 / vbv-init=0.9 / crf-max=0.0 / crf-min=0.0 / ipratio=1.40 / pbratio=1.30 / aq-mode=3 / aq-strength=0.80 / cutree / zone-count=0 / no-strict-cbr / qg-size=32 / no-rc-grain / qpmax=69 / qpmin=0 / no-const-vbv / sar=1 / overscan=0 / videoformat=5 / range=0 / colorprim=1 / transfer=1 / colormatrix=1 / chromaloc=0 / display-window=0 / cll=0,0 / min-luma=0 / max-luma=1023 / log2-max-poc-lsb=8 / vui-timing-info / vui-hrd-info / slices=1 / no-opt-qp-pps / no-opt-ref-list-length-pps / no-multi-pass-opt-rps / scenecut-bias=0.05 / no-opt-cu-delta-qp / no-aq-motion / no-hdr / no-hdr-opt / no-dhdr10-opt / no-idr-recovery-sei / analysis-reuse-level=5 / scale-factor=0 / refine-intra=0 / refine-inter=0 / refine-mv=1 / refine-ctu-distortion=0 / no-limit-sao / ctu-info=0 / no-lowpass-dct / refine-analysis-type=0 / copy-pic=1 / max-ausize-factor=1.0 / no-dynamic-refine / no-single-sei / no-hevc-aq / no-svt / no-field / qp-adaptation-range=1.00 Default : Yes Forced : No Color range : Limited Color primaries : BT.709 Transfer characteristics : BT.709 Matrix coefficients : BT.709 Audio ID : 2 Format : AAC LC Format/Info : Advanced Audio Codec Low Complexity Codec ID : A_AAC-2 Duration : 23 min 52 s Bit rate : 242 kb/s Channel(s) : 2 channels Channel layout : L R Sampling rate : 48.0 kHz Frame rate : 46.875 FPS (1024 SPF) Compression mode : Lossy Delay relative to video : -43 ms Stream size : 41.2 MiB (21%) Title : Stereo - JPN (AAC) Language : Japanese Default : Yes Forced : No Text ID : 3 Format : ASS Codec ID : S_TEXT/ASS Codec ID/Info : Advanced Sub Station Alpha Duration : 23 min 49 s Bit rate : 761 b/s Count of elements : 984 Compression mode : Lossless Stream size : 133 KiB (0%) Title : Dialog - ENG (ASS) Language : English Default : No Forced : No Menu 00:00:00.000 : :Opening 00:01:31.091 : :Part A 00:10:46.062 : :Part B 00:22:06.075 : :Ending 00:23:36.248 : :Preview ```

File list

  • [neoHEVC] Natsume's Book of Friends - Zoku Natsume Yuujinchou [Season 2] [BD 1080p x265 HEVC AAC]
    • Natsume's Book of Friends (Zoku) - S02E01.mkv (197.2 MiB)
    • Natsume's Book of Friends (Zoku) - S02E02.mkv (259.5 MiB)
    • Natsume's Book of Friends (Zoku) - S02E03.mkv (160.5 MiB)
    • Natsume's Book of Friends (Zoku) - S02E04.mkv (179.2 MiB)
    • Natsume's Book of Friends (Zoku) - S02E05.mkv (163.6 MiB)
    • Natsume's Book of Friends (Zoku) - S02E06.mkv (165.2 MiB)
    • Natsume's Book of Friends (Zoku) - S02E07.mkv (179.8 MiB)
    • Natsume's Book of Friends (Zoku) - S02E08.mkv (343.2 MiB)
    • Natsume's Book of Friends (Zoku) - S02E09.mkv (197.2 MiB)
    • Natsume's Book of Friends (Zoku) - S02E10.mkv (178.9 MiB)
    • Natsume's Book of Friends (Zoku) - S02E11.mkv (190.9 MiB)
    • Natsume's Book of Friends (Zoku) - S02E12.mkv (190.3 MiB)
    • Natsume's Book of Friends (Zoku) - S02E13.mkv (211.6 MiB)
I've seen them all but, I'll still download and help seed because I love your releases!

neoborn (uploader)

User
**@Glordit** ![](https://i.imgur.com/4WvJ0SW.png) **Thank you for your service! ❤️ =)**