[neoHEVC] Natsume's Book of Friends / Natsume Yuujinchou Go [Season 5] [BD 1080p x265 HEVC AAC]

Category:
Date:
2020-08-04 17:44 UTC
Submitter:
Seeders:
18
Information:
Leechers:
0
File size:
2.3 GiB
Completed:
512
Info hash:
813b90b875d92922a2ec40a6d1e94a28b3954e6c
![](https://i.imgur.com/geEFUkn.png) *Join **[Discord](https://discord.gg/KYKYZUh)** for Current Projects, Encode-Requests and Seed-Request in case of no available seeds.* **Natsume's Book of Friends / Natsume Yuujinchou Go [Season 5]** Including *[Season 5] Go Specials (Episode 12+13)* *with `Jpn Dub` and `Eng Subs` in `1080p HEVC`* Reencode of [CyC] (x264 AVC FLAC) to (x265 HEVC AAC). Ⓜ️ [Natsume's Book of Friends / Natsume Yuujinchou Go [Season 5] on MAL](https://myanimelist.net/anime/32983/Natsume_Yuujinchou_Go) Ⓜ️ [Natsume's Book of Friends / Natsume Yuujinchou Go [Season 5] Specials on MAL]( https://myanimelist.net/anime/34534/Natsume_Yuujinchou_Go_Specials) --- **Related Releases:** 1️⃣ [Season 1: Natsume Yuujinchou](https://nyaa.si/view/1267009) 2️⃣ [Season 2: Zoku Natsume Yuujinchou](https://nyaa.si/view/1267243) 3️⃣ [Season 3: Natsume Yuujinchou San](https://nyaa.si/view/1268047) 4️⃣ [Season 4: Natsume Yuujinchou Shi](https://nyaa.si/view/1268384) 6️⃣ [Season 6: Natsume Yuujinchou Roku](https://nyaa.si/view/1268976) ▶️ [Movie: Ephemeral Bond / Utsusemi ni Musubu](https://nyaa.si/view/1269182) --- **Synopsis** Takashi Natsume is a boy who's been able to see youkai ever since he was a child. Ever since he inherited the "Book of Friends" from his grandmother Reiko, he and his self-proclaimed bodyguard Nyanko-sensei have spent their days returning names to the youkai who are bound by the book. As he meets the different youkai and people, he finds himself with many more things that he cares about. He wonders whether it's right to keep secrets to protect someone as little by little he works up the courage to build even more friendships. ![](https://i.imgur.com/dvhOVrP.png) --- **Comparison** (avc: source, hevc: encode) *Open links, toggle with mouseclick and check title.* [![](https://i.imgur.com/4V83gXl.png)](https://slow.pics/c/U4UQiHSi) [![](https://i.imgur.com/g0X2GpO.png)](https://slow.pics/c/KssTzHVr) [![](https://i.imgur.com/xnEDh8A.png)](https://slow.pics/c/PxiultKw) --- **Source** 🗃️ Video, Audio and Subs: [CyC] https://nyaa.si/view/1019955 💬 *Subtitles Info: [Commie] - Format `ASS`* --- **Media Info** ``` General Unique ID : 245755549497673632825938140703250232735 (0xB8E2CC13D64F969B00E95E8FBBD4B59F) Complete name : Natsume's Book of Friends (Go) - S05E01.mkv Format : Matroska Format version : Version 4 File size : 198 MiB Duration : 23 min 52 s Overall bit rate : 1 158 kb/s Movie name : Natsume's Book of Friends (Go) - S05E01 Encoded date : UTC 2020-07-27 18:16:00 Writing application : mkvmerge v47.0.0 ('Black Flag') 64-bit Writing library : libebml v1.3.10 + libmatroska v1.5.2 / Lavf58.29.100 Attachments : ArnoPro-Regular.otf / BAARS___.TTF / EFN_OknoFont.ttf / FTLTLT_0.TTF / MKAbel.ttf / MISTRAL.TTF Video ID : 1 Format : HEVC Format/Info : High Efficiency Video Coding Format profile : Main 10@L4@High Codec ID : V_MPEGH/ISO/HEVC Duration : 23 min 52 s Bit rate : 935 kb/s Width : 1 920 pixels Height : 1 080 pixels Display aspect ratio : 16:9 Frame rate mode : Constant Frame rate : 23.976 (24000/1001) FPS Color space : YUV Chroma subsampling : 4:2:0 Bit depth : 10 bits Bits/(Pixel*Frame) : 0.019 Stream size : 160 MiB (81%) Writing library : x265 3.2.1+1-b5c86a64bbbe:[Windows][GCC 9.2.0][64 bit] 10bit Encoding settings : cpuid=1111039 / frame-threads=2 / numa-pools=4 / wpp / no-pmode / no-pme / no-psnr / no-ssim / log-level=2 / input-csp=1 / input-res=1920x1080 / interlace=0 / total-frames=0 / level-idc=40 / high-tier=1 / uhd-bd=0 / ref=5 / no-allow-non-conformance / no-repeat-headers / annexb / no-aud / no-hrd / info / hash=0 / no-temporal-layers / open-gop / min-keyint=24 / keyint=240 / gop-lookahead=0 / bframes=8 / b-adapt=2 / b-pyramid / bframe-bias=0 / rc-lookahead=25 / lookahead-slices=4 / scenecut=40 / radl=0 / no-splice / no-intra-refresh / ctu=64 / min-cu-size=8 / rect / no-amp / max-tu-size=32 / tu-inter-depth=1 / tu-intra-depth=1 / limit-tu=0 / rdoq-level=2 / dynamic-rd=0.00 / no-ssim-rd / signhide / no-tskip / nr-intra=0 / nr-inter=0 / no-constrained-intra / strong-intra-smoothing / max-merge=3 / limit-refs=3 / limit-modes / me=3 / subme=3 / merange=57 / temporal-mvp / no-hme / weightp / no-weightb / no-analyze-src-pics / deblock=0:0 / sao / no-sao-non-deblock / rd=4 / selective-sao=4 / no-early-skip / rskip / no-fast-intra / no-tskip-fast / no-cu-lossless / no-b-intra / no-splitrd-skip / rdpenalty=0 / psy-rd=0.00 / psy-rdoq=1.00 / no-rd-refine / no-lossless / cbqpoffs=0 / crqpoffs=0 / rc=crf / crf=21.0 / qcomp=0.60 / qpstep=4 / stats-write=0 / stats-read=0 / vbv-maxrate=30000 / vbv-bufsize=30000 / vbv-init=0.9 / crf-max=0.0 / crf-min=0.0 / ipratio=1.40 / pbratio=1.30 / aq-mode=3 / aq-strength=0.80 / cutree / zone-count=0 / no-strict-cbr / qg-size=32 / no-rc-grain / qpmax=69 / qpmin=0 / no-const-vbv / sar=1 / overscan=0 / videoformat=5 / range=0 / colorprim=1 / transfer=1 / colormatrix=1 / chromaloc=0 / display-window=0 / cll=0,0 / min-luma=0 / max-luma=1023 / log2-max-poc-lsb=8 / vui-timing-info / vui-hrd-info / slices=1 / no-opt-qp-pps / no-opt-ref-list-length-pps / no-multi-pass-opt-rps / scenecut-bias=0.05 / no-opt-cu-delta-qp / no-aq-motion / no-hdr / no-hdr-opt / no-dhdr10-opt / no-idr-recovery-sei / analysis-reuse-level=5 / scale-factor=0 / refine-intra=0 / refine-inter=0 / refine-mv=1 / refine-ctu-distortion=0 / no-limit-sao / ctu-info=0 / no-lowpass-dct / refine-analysis-type=0 / copy-pic=1 / max-ausize-factor=1.0 / no-dynamic-refine / no-single-sei / no-hevc-aq / no-svt / no-field / qp-adaptation-range=1.00 Default : Yes Forced : No Color range : Limited Color primaries : BT.709 Transfer characteristics : BT.709 Matrix coefficients : BT.709 Audio ID : 2 Format : AAC LC Format/Info : Advanced Audio Codec Low Complexity Codec ID : A_AAC-2 Duration : 23 min 52 s Bit rate : 215 kb/s Channel(s) : 2 channels Channel layout : L R Sampling rate : 48.0 kHz Frame rate : 46.875 FPS (1024 SPF) Compression mode : Lossy Delay relative to video : -43 ms Stream size : 36.7 MiB (19%) Title : Stereo - JPN (AAC) Language : Japanese Default : Yes Forced : No Text ID : 3 Format : ASS Codec ID : S_TEXT/ASS Codec ID/Info : Advanced Sub Station Alpha Duration : 23 min 41 s Bit rate : 891 b/s Count of elements : 1025 Compression mode : Lossless Stream size : 155 KiB (0%) Title : Dialog - ENG (ASS) Language : English Default : No Forced : No Menu 00:00:00.000 : :Opening 00:01:30.048 : :Part A 00:10:19.119 : :Part B 00:22:05.074 : :Ending 00:23:35.122 : :Preview ```

File list

  • [neoHEVC] Natsume's Book of Friends - Natsume Yuujinchou Go [Season 5] [BD 1080p x265 HEVC AAC]
    • Natsume's Book of Friends (Go) - S05E01.mkv (197.8 MiB)
    • Natsume's Book of Friends (Go) - S05E02.mkv (182.2 MiB)
    • Natsume's Book of Friends (Go) - S05E03.mkv (187.2 MiB)
    • Natsume's Book of Friends (Go) - S05E04.mkv (168.6 MiB)
    • Natsume's Book of Friends (Go) - S05E05.mkv (177.6 MiB)
    • Natsume's Book of Friends (Go) - S05E06.mkv (172.2 MiB)
    • Natsume's Book of Friends (Go) - S05E07.mkv (176.8 MiB)
    • Natsume's Book of Friends (Go) - S05E08.mkv (186.7 MiB)
    • Natsume's Book of Friends (Go) - S05E09.mkv (182.6 MiB)
    • Natsume's Book of Friends (Go) - S05E10.mkv (159.9 MiB)
    • Natsume's Book of Friends (Go) - S05E11.mkv (172.7 MiB)
    • Natsume's Book of Friends (Go) - S05E12.mkv (187.3 MiB)
    • Natsume's Book of Friends (Go) - S05E13.mkv (160.1 MiB)
Thank you so much for all the x265 uploads. You just cut down my Natsumn folder from 100+ GB to under 40, and that will be under 20 when you release S6. Keep up the good work!

neoborn (uploader)

User
**@B1gCh33sy** Glad to hear it. Those releases I worked with were soooo compressible ❤️ Just don't forget to compare these small ones with your bigger ones to see if the quality lost is still acceptable to you =) You can also use the comparison screenshots in the description of all my torrents to help you decide. I try to provide as many different scenes as possible with different colors and details so everybody knows exactly what they get from downloading my torrents =)