[neoHEVC] Natsume's Book of Friends [Season 4 + OVA + Special] [BD 1080p x265 HEVC AAC] Natsume Yuujinchou Shi

Category:
Date:
2020-08-03 17:38 UTC
Submitter:
Seeders:
40
Information:
Leechers:
3
File size:
3.0 GiB
Completed:
5693
Info hash:
902a43423f5ea62b77addc56a254bf771a5ebb41
![](https://i.imgur.com/geEFUkn.png) *Join **[Discord](https://discord.gg/KYKYZUh)** for Current Projects, Encode-Requests and Seed-Request in case of no available seeds.* **Natsume's Book of Friends / Natsume Yuujinchou Shi [Season 4]** Including *[Season 4] Special (Nyanko-sensei to Hajimete no Otsukai) and OVA (Itsuka Yuki no Hi ni)* *with `Jpn Dub` and `Eng Subs` in `BD 1080p HEVC`* Reencode of [CyC] (x264 AVC FLAC) to (x265 HEVC AAC). ![](https://i.imgur.com/4iegWLL.png) **[Trailer](https://www.youtube.com/watch?v=n_Ku789_xVo)** ![](https://i.imgur.com/3UxGuWB.png) ![](https://i.imgur.com/ZCtSawZ.png) **[MyAnimeList: Natsume's Book of Friends Season 4](https://myanimelist.net/anime/11665/Natsume_Yuujinchou_Shi)** ![](https://i.imgur.com/3UxGuWB.png) ![](https://i.imgur.com/ZCtSawZ.png) **[MyAnimeList: Natsume's Book of Friends Season 4 LaLa Special](https://myanimelist.net/anime/18849/Natsume_Yuujinchou__Nyanko-sensei_to_Hajimete_no_Otsukai)** ![](https://i.imgur.com/3UxGuWB.png) ![](https://i.imgur.com/ZCtSawZ.png) **[MyAnimeList: Natsume's Book of Friends Season 4 OVA](https://myanimelist.net/anime/20651/Natsume_Yuujinchou__Itsuka_Yuki_no_Hi_ni)** --- **Related Releases:** 1️⃣ [Season 1: Natsume Yuujinchou](https://nyaa.si/view/1267009) 2️⃣ [Season 2: Zoku Natsume Yuujinchou](https://nyaa.si/view/1267243) 3️⃣ [Season 3: Natsume Yuujinchou San](https://nyaa.si/view/1268047) 5️⃣ [Season 5: Natsume Yuujinchou Go](https://nyaa.si/view/1268681) 6️⃣ [Season 6: Natsume Yuujinchou Roku](https://nyaa.si/view/1268976) ▶️ [Movie: Ephemeral Bond / Utsusemi ni Musubu](https://nyaa.si/view/1269182) ▶️ [Movie: Ishi Okoshi to Ayashiki Raihousha ](https://nyaa.si/view/1401421) --- **Synopsis** Takashi Natsume, the timid youkai expert and master of the Book of Friends, continues his journey towards self-understanding and acceptance with the help of friends both new and old. His most important ally is still his gluttonous and sake-loving bodyguard, the arrogant but fiercely protective wolf spirit Madara—or Nyanko-sensei, as Madara is called when in his usual disguise of an unassuming, pudgy cat. Natsume, while briefly separated from Nyanko-sensei, is ambushed and kidnapped by a strange group of masked, monkey-like youkai, who have spirited him away to their forest as they desperately search for the Book of Friends. Realizing that his "servant" has been taken out from right under his nose, Nyanko-sensei enlists the help of Natsume's youkai friends and mounts a rescue operation. However, the forest of the monkey spirits holds many dangerous enemies, including the Matoba Clan, Natsume's old nemesis. Stretching from the formidable hideout of the Matoba to Natsume's own childhood home, Natsume Yuujinchou Shi is a sweeping but familiar return to a world of danger and friendship, where Natsume will finally confront the demons of his own past. ![](https://i.imgur.com/nd9ncpJ.png) --- **Comparison** (avc: source, hevc: encode) *Open links, toggle with mouseclick and check title.* [![](https://i.imgur.com/tn4zA5H.png)](https://slow.pics/c/jcjrcvVQ) [![](https://i.imgur.com/gJiKz2A.png)](https://slow.pics/c/yvoPZqH7) [![](https://i.imgur.com/cMd6Ji3.png)](https://slow.pics/c/EtU9B5G6) --- **Source** ?️ Season: Video, Audio and Subs: [CyC] https://nyaa.si/view/1019039 ?️ Special: Video, Audio and Subs: [CyC] https://nyaa.si/view/1019499 ?️ OVA: Video, Audio and Subs: [CyC] https://nyaa.si/view/1019500 ? *Subtitles Info: Season [tlacatlc6], OVA [Commie], Special [esc] - Format `ASS`* --- **Media Info** ``` General Unique ID : 52326271673439928072807134489370070411 (0x275DAC60A05C2E22079D78EB83FE8D8B) Complete name : Natsume's Book of Friends (Shi) - S04E01.mkv Format : Matroska Format version : Version 4 File size : 216 MiB Duration : 24 min 17 s Overall bit rate : 1 243 kb/s Movie name : Natsume's Book of Friends (Shi) - S04E01 Encoded date : UTC 2020-07-26 12:05:47 Writing application : mkvmerge v47.0.0 ('Black Flag') 64-bit Writing library : libebml v1.3.10 + libmatroska v1.5.2 / Lavf58.29.100 Attachments : BAARS___.TTF / Buda-Light.ttf / EFN_OknoFont.ttf / FTLTLT_0.TTF / MKAbel.ttf / Square_Engine_150_Simplex.ttf / Square_Kids.ttf Video ID : 1 Format : HEVC Format/Info : High Efficiency Video Coding Format profile : Main 10@L4@High Codec ID : V_MPEGH/ISO/HEVC Duration : 24 min 17 s Bit rate : 1 017 kb/s Width : 1 920 pixels Height : 1 080 pixels Display aspect ratio : 16:9 Frame rate mode : Constant Frame rate : 23.976 (24000/1001) FPS Color space : YUV Chroma subsampling : 4:2:0 Bit depth : 10 bits Bits/(Pixel*Frame) : 0.020 Stream size : 177 MiB (82%) Writing library : x265 3.2.1+1-b5c86a64bbbe:[Windows][GCC 9.2.0][64 bit] 10bit Encoding settings : cpuid=1111039 / frame-threads=2 / numa-pools=4 / wpp / no-pmode / no-pme / no-psnr / no-ssim / log-level=2 / input-csp=1 / input-res=1920x1080 / interlace=0 / total-frames=0 / level-idc=40 / high-tier=1 / uhd-bd=0 / ref=5 / no-allow-non-conformance / no-repeat-headers / annexb / no-aud / no-hrd / info / hash=0 / no-temporal-layers / open-gop / min-keyint=24 / keyint=240 / gop-lookahead=0 / bframes=8 / b-adapt=2 / b-pyramid / bframe-bias=0 / rc-lookahead=25 / lookahead-slices=4 / scenecut=40 / radl=0 / no-splice / no-intra-refresh / ctu=64 / min-cu-size=8 / rect / no-amp / max-tu-size=32 / tu-inter-depth=1 / tu-intra-depth=1 / limit-tu=0 / rdoq-level=2 / dynamic-rd=0.00 / no-ssim-rd / signhide / no-tskip / nr-intra=0 / nr-inter=0 / no-constrained-intra / strong-intra-smoothing / max-merge=3 / limit-refs=3 / limit-modes / me=3 / subme=3 / merange=57 / temporal-mvp / no-hme / weightp / no-weightb / no-analyze-src-pics / deblock=0:0 / sao / no-sao-non-deblock / rd=4 / selective-sao=4 / no-early-skip / rskip / no-fast-intra / no-tskip-fast / no-cu-lossless / no-b-intra / no-splitrd-skip / rdpenalty=0 / psy-rd=0.00 / psy-rdoq=1.00 / no-rd-refine / no-lossless / cbqpoffs=0 / crqpoffs=0 / rc=crf / crf=21.0 / qcomp=0.60 / qpstep=4 / stats-write=0 / stats-read=0 / vbv-maxrate=30000 / vbv-bufsize=30000 / vbv-init=0.9 / crf-max=0.0 / crf-min=0.0 / ipratio=1.40 / pbratio=1.30 / aq-mode=3 / aq-strength=0.80 / cutree / zone-count=0 / no-strict-cbr / qg-size=32 / no-rc-grain / qpmax=69 / qpmin=0 / no-const-vbv / sar=1 / overscan=0 / videoformat=5 / range=0 / colorprim=1 / transfer=1 / colormatrix=1 / chromaloc=0 / display-window=0 / cll=0,0 / min-luma=0 / max-luma=1023 / log2-max-poc-lsb=8 / vui-timing-info / vui-hrd-info / slices=1 / no-opt-qp-pps / no-opt-ref-list-length-pps / no-multi-pass-opt-rps / scenecut-bias=0.05 / no-opt-cu-delta-qp / no-aq-motion / no-hdr / no-hdr-opt / no-dhdr10-opt / no-idr-recovery-sei / analysis-reuse-level=5 / scale-factor=0 / refine-intra=0 / refine-inter=0 / refine-mv=1 / refine-ctu-distortion=0 / no-limit-sao / ctu-info=0 / no-lowpass-dct / refine-analysis-type=0 / copy-pic=1 / max-ausize-factor=1.0 / no-dynamic-refine / no-single-sei / no-hevc-aq / no-svt / no-field / qp-adaptation-range=1.00 Default : Yes Forced : No Color range : Limited Color primaries : BT.709 Transfer characteristics : BT.709 Matrix coefficients : BT.709 Audio ID : 2 Format : AAC LC Format/Info : Advanced Audio Codec Low Complexity Codec ID : A_AAC-2 Duration : 24 min 17 s Bit rate : 221 kb/s Channel(s) : 2 channels Channel layout : L R Sampling rate : 48.0 kHz Frame rate : 46.875 FPS (1024 SPF) Compression mode : Lossy Delay relative to video : -43 ms Stream size : 38.4 MiB (18%) Title : Stereo - JPN (AAC) Language : Japanese Default : Yes Forced : No Text ID : 3 Format : ASS Codec ID : S_TEXT/ASS Codec ID/Info : Advanced Sub Station Alpha Duration : 24 min 12 s Bit rate : 226 b/s Count of elements : 561 Compression mode : Lossless Stream size : 40.1 KiB (0%) Title : Dialog - ENG (ASS) Language : English Default : No Forced : No Menu 00:00:00.000 : :Opening 00:01:31.133 : :Part A 00:12:47.058 : :Part B 00:22:31.100 : :Ending 00:24:01.065 : :Preview ```

File list

  • [neoHEVC] Natsume's Book of Friends - Natsume Yuujinchou Shi [Season 4] [BD 1080p x265 HEVC AAC]
    • Special + OVA
      • Natsume Yuujinchou - S04 OVA - Itsuka Yuki no Hi ni.mkv (194.3 MiB)
      • Natsume Yuujinchou - S04 Special - Nyanko-sensei to Hajimete no Otsukai.mkv (179.2 MiB)
    • Natsume's Book of Friends (Shi) - S04E01.mkv (215.9 MiB)
    • Natsume's Book of Friends (Shi) - S04E02.mkv (183.6 MiB)
    • Natsume's Book of Friends (Shi) - S04E03.mkv (206.1 MiB)
    • Natsume's Book of Friends (Shi) - S04E04.mkv (190.0 MiB)
    • Natsume's Book of Friends (Shi) - S04E05.mkv (209.5 MiB)
    • Natsume's Book of Friends (Shi) - S04E06.mkv (180.8 MiB)
    • Natsume's Book of Friends (Shi) - S04E07.mkv (191.5 MiB)
    • Natsume's Book of Friends (Shi) - S04E08.mkv (216.8 MiB)
    • Natsume's Book of Friends (Shi) - S04E09.mkv (224.5 MiB)
    • Natsume's Book of Friends (Shi) - S04E10.mkv (258.5 MiB)
    • Natsume's Book of Friends (Shi) - S04E11.mkv (191.5 MiB)
    • Natsume's Book of Friends (Shi) - S04E12.mkv (202.2 MiB)
    • Natsume's Book of Friends (Shi) - S04E13.mkv (207.7 MiB)