[neoHEVC] Natsume's Book of Friends [Movie] [BD 1080p x265 HEVC AAC] Natsume Yuujinchou

Category:
Date:
2020-08-06 16:20 UTC
Submitter:
Seeders:
36
Information:
Leechers:
0
File size:
1.0 GiB
Completed:
4489
Info hash:
c801d5837e62240efeb81789f8d0f41e5e6254a5
![](https://i.imgur.com/geEFUkn.png) *Join **[Discord](https://discord.gg/KYKYZUh)** for Current Projects, Encode-Requests and Seed-Request in case of no available seeds.* **Natsume's Book of Friends: Ephemeral Bond / Natsume Yuujinchou: Utsusemi ni Musubu** *with `Jpn Dub` and `Eng Subs` in `BD 1080p HEVC`* Reencode of [CyC] (x264 AVC FLAC) to (x265 HEVC AAC). ![](https://i.imgur.com/4iegWLL.png) **[Trailer](https://www.youtube.com/watch?v=DqNPx2nqknA)** ![](https://i.imgur.com/3UxGuWB.png) ![](https://i.imgur.com/ZCtSawZ.png) **[MyAnimeList](https://myanimelist.net/anime/36538/Natsume_Yuujinchou_Movie__Utsusemi_ni_Musubu)** --- **Related Releases:** 1️⃣ [Season 1: Natsume Yuujinchou](https://nyaa.si/view/1267009) 2️⃣ [Season 2: Zoku Natsume Yuujinchou](https://nyaa.si/view/1267243) 3️⃣ [Season 3: Natsume Yuujinchou San](https://nyaa.si/view/1268047) 4️⃣ [Season 4: Natsume Yuujinchou Shi](https://nyaa.si/view/1268384) 5️⃣ [Season 5: Natsume Yuujinchou Go](https://nyaa.si/view/1268681) 6️⃣ [Season 6: Natsume Yuujinchou Roku](https://nyaa.si/view/1268976) ▶️ [Movie: Ishi Okoshi to Ayashiki Raihousha ](https://nyaa.si/view/1401421) --- **Synopsis** Ever since he was little, Takashi Natsume has been able to see what others could not, namely monstrous spirits known as Yokai. Natsume's late grandmother, Reiko, would challenge Yokai to contests and the ones that lost had to sign a contract with her, binding their names to her "Yujin-cho." Ever since Natsume has inherited the book, together with Nyanko Sensei, his self-proclaimed bodyguard, he spends his days trying to return the names within the book to their owners. Natsume has been busy, navigating between humans and Yokai when he coincidentally reunites with an old classmate, Yuki. It brings back painful memories of a certain Yokai. Meanwhile, Natsume also became acquainted with Yorie Tsumura, a woman in the memories of a Yokai whose name he had returned. Yorie knew much about Reiko, but now lived a peaceful life with her only son, Mukuo. Being with this family was comforting for Natsume, but apparently a mysterious Yokai has been lurking in their town. On the way back from investigating, a "Yokai seed" that had latched itself to Nyanko Sensei drops into the Fujiwaras' garden and grows overnight into a fruit tree. When Nyanko Sensei eats a fruit that is somehow shaped like himself, he suddenly splits into three! ![](https://i.imgur.com/JDNGpxU.png) --- **Comparison** (avc: source, hevc: encode) *Open links, toggle with mouseclick and check title.* [![](https://i.imgur.com/mCqrd1g.png)](https://slow.pics/c/ZR6BZdxs) [![](https://i.imgur.com/VekQJez.png)](https://slow.pics/c/nbRiqx8X) [![](https://i.imgur.com/4MqqOWw.png)](https://slow.pics/c/9Kuio7sU) --- **Source** ?️ Video, Audio and Subs: [CyC] https://nyaa.si/view/1204457 ? *Subtitles Info: [Commie] - Format `ASS`* --- **Media Info** ``` General Unique ID : 239724432682519628730490318094193125501 (0xB4593F0F832DA24179CCC6EE61FBE87D) Complete name : Natsume's Book of Friends Movie - Ephemeral Bond.mkv Format : Matroska Format version : Version 4 File size : 1.02 GiB Duration : 1 h 44 min Overall bit rate : 1 402 kb/s Movie name : Natsume's Book of Friends Movie - Ephemeral Bond Encoded date : UTC 2020-07-30 14:56:12 Writing application : mkvmerge v47.0.0 ('Black Flag') 64-bit Writing library : libebml v1.3.10 + libmatroska v1.5.2 / Lavf58.29.100 Attachments : BAARS___.TTF / Brotherhood.ttf / CALIFR.TTF / IwaMinPro-Lt-Madoka_0.ttf / DK Cool Crayon.ttf / Just tell me what regular (Version 2).otf / Holden-Fat.ttf / ArnoPro-Regular.otf / SNsanafonKazariV270.ttf / sharpie-stylie.ttf / CALIST.TTF / Brush Strokes_6.ttf / TragicMarker.otf / Polo Brush.ttf / Gingerline DEMO.otf Video ID : 1 Format : HEVC Format/Info : High Efficiency Video Coding Format profile : Main 10@L4@High Codec ID : V_MPEGH/ISO/HEVC Duration : 1 h 44 min Bit rate : 1 168 kb/s Width : 1 920 pixels Height : 1 080 pixels Display aspect ratio : 16:9 Frame rate mode : Constant Frame rate : 23.976 (24000/1001) FPS Color space : YUV Chroma subsampling : 4:2:0 Bit depth : 10 bits Bits/(Pixel*Frame) : 0.024 Stream size : 873 MiB (83%) Writing library : x265 3.2.1+1-b5c86a64bbbe:[Windows][GCC 9.2.0][64 bit] 10bit Encoding settings : cpuid=1111039 / frame-threads=2 / numa-pools=4 / wpp / no-pmode / no-pme / no-psnr / no-ssim / log-level=2 / input-csp=1 / input-res=1920x1080 / interlace=0 / total-frames=0 / level-idc=40 / high-tier=1 / uhd-bd=0 / ref=5 / no-allow-non-conformance / no-repeat-headers / annexb / no-aud / no-hrd / info / hash=0 / no-temporal-layers / open-gop / min-keyint=24 / keyint=240 / gop-lookahead=0 / bframes=8 / b-adapt=2 / b-pyramid / bframe-bias=0 / rc-lookahead=25 / lookahead-slices=4 / scenecut=40 / radl=0 / no-splice / no-intra-refresh / ctu=64 / min-cu-size=8 / rect / no-amp / max-tu-size=32 / tu-inter-depth=1 / tu-intra-depth=1 / limit-tu=0 / rdoq-level=2 / dynamic-rd=0.00 / no-ssim-rd / signhide / no-tskip / nr-intra=0 / nr-inter=0 / no-constrained-intra / strong-intra-smoothing / max-merge=3 / limit-refs=3 / limit-modes / me=3 / subme=3 / merange=57 / temporal-mvp / no-hme / weightp / no-weightb / no-analyze-src-pics / deblock=0:0 / sao / no-sao-non-deblock / rd=4 / selective-sao=4 / no-early-skip / rskip / no-fast-intra / no-tskip-fast / no-cu-lossless / no-b-intra / no-splitrd-skip / rdpenalty=0 / psy-rd=0.00 / psy-rdoq=1.00 / no-rd-refine / no-lossless / cbqpoffs=0 / crqpoffs=0 / rc=crf / crf=21.0 / qcomp=0.60 / qpstep=4 / stats-write=0 / stats-read=0 / vbv-maxrate=30000 / vbv-bufsize=30000 / vbv-init=0.9 / crf-max=0.0 / crf-min=0.0 / ipratio=1.40 / pbratio=1.30 / aq-mode=3 / aq-strength=0.80 / cutree / zone-count=0 / no-strict-cbr / qg-size=32 / no-rc-grain / qpmax=69 / qpmin=0 / no-const-vbv / sar=1 / overscan=0 / videoformat=5 / range=0 / colorprim=1 / transfer=1 / colormatrix=1 / chromaloc=0 / display-window=0 / cll=0,0 / min-luma=0 / max-luma=1023 / log2-max-poc-lsb=8 / vui-timing-info / vui-hrd-info / slices=1 / no-opt-qp-pps / no-opt-ref-list-length-pps / no-multi-pass-opt-rps / scenecut-bias=0.05 / no-opt-cu-delta-qp / no-aq-motion / no-hdr / no-hdr-opt / no-dhdr10-opt / no-idr-recovery-sei / analysis-reuse-level=5 / scale-factor=0 / refine-intra=0 / refine-inter=0 / refine-mv=1 / refine-ctu-distortion=0 / no-limit-sao / ctu-info=0 / no-lowpass-dct / refine-analysis-type=0 / copy-pic=1 / max-ausize-factor=1.0 / no-dynamic-refine / no-single-sei / no-hevc-aq / no-svt / no-field / qp-adaptation-range=1.00 Default : Yes Forced : No Color range : Limited Color primaries : BT.709 Transfer characteristics : BT.709 Matrix coefficients : BT.709 Audio ID : 2 Format : AAC LC Format/Info : Advanced Audio Codec Low Complexity Codec ID : A_AAC-2 Duration : 1 h 44 min Bit rate : 218 kb/s Channel(s) : 2 channels Channel layout : L R Sampling rate : 48.0 kHz Frame rate : 46.875 FPS (1024 SPF) Compression mode : Lossy Delay relative to video : -43 ms Stream size : 163 MiB (16%) Title : Stereo - JPN (AAC) Language : Japanese Default : Yes Forced : No Text ID : 3 Format : ASS Codec ID : S_TEXT/ASS Codec ID/Info : Advanced Sub Station Alpha Duration : 1 h 43 min Bit rate : 2 743 b/s Count of elements : 12239 Compression mode : Lossless Stream size : 2.03 MiB (0%) Title : Dialog - ENG (ASS) Language : English Default : No Forced : No Menu 00:00:00.000 : :Aniplex 00:00:06.048 : :Part A 00:18:22.602 : :Part B 00:32:18.270 : :Part C 00:43:38.616 : :Part D 00:55:03.926 : :Part E 01:10:36.232 : :Part F 01:18:34.335 : :Part G 01:32:18.867 : :Part H 01:39:11.904 : :ED ```

File list

neoborn (uploader)

User
![](https://i.imgur.com/MSA3n87.png) **It's over. It's finally over!!!** **Shooooo... away with you, Natsume. And don't you forget your book!!!**
Thanks a lot for this whole series
Thank you very much ????
Thank you so much for doing all of Natsume!
Thank you for how you organize the titles and for doing the series as a whole. I had some nostalgia, so I wanted a way to rewatch the entire series again. Thank you.

neoborn (uploader)

User
You are very welcome guys. Happy that you like my things =)