[neoHEVC] Natsume's Book of Friends [Season 1] [BD 1080p x265 HEVC AAC] Natsume Yuujinchou

Category:
Date:
2020-07-30 14:33 UTC
Submitter:
Seeders:
61
Information:
Leechers:
2
File size:
2.5 GiB
Completed:
7465
Info hash:
b2bcca41766cf0a59dc70709cb6e6b8c80465a80
![](https://i.imgur.com/geEFUkn.png) *Join **[Discord](https://discord.gg/KYKYZUh)** for Current Projects, Encode-Requests and Seed-Request in case of no available seeds.* **Natsume's Book of Friends / Natsume Yuujinchou [Season 1]** *with `Jpn Dub` and `Eng Subs` in `BD 1080p HEVC`* Reencode of [CyC] (x264 AVC FLAC) to (x265 HEVC AAC). ![](https://i.imgur.com/4iegWLL.png) **[Trailer](https://www.youtube.com/watch?v=mea4xITAo_4)** ![](https://i.imgur.com/3UxGuWB.png) ![](https://i.imgur.com/ZCtSawZ.png) **[MyAnimeList](https://myanimelist.net/anime/4081/Natsume_Yuujinchou)** --- **Related Releases:** 2️⃣ [Season 2: Zoku Natsume Yuujinchou](https://nyaa.si/view/1267243) 3️⃣ [Season 3: Natsume Yuujinchou San](https://nyaa.si/view/1268047) 4️⃣ [Season 4: Natsume Yuujinchou Shi](https://nyaa.si/view/1268384) 5️⃣ [Season 5: Natsume Yuujinchou Go](https://nyaa.si/view/1268681) 6️⃣ [Season 6: Natsume Yuujinchou Roku](https://nyaa.si/view/1268976) ▶️ [Movie: Ephemeral Bond / Utsusemi ni Musubu](https://nyaa.si/view/1269182) ▶️ [Movie: Ishi Okoshi to Ayashiki Raihousha ](https://nyaa.si/view/1401421) --- **Synopsis** While most fifteen-year-old boys, in one way or another, harbor secrets that are related to girls, Takashi Natsume has a peculiar and terrifying secret involving youkai: for as long as he can remember, he has been constantly chased by these spirits. Natsume soon discovers that his deceased grandmother Reiko had passed on to him the Yuujinchou, or "Book of Friends," which contains the names of the spirits whom she brought under her control. Now in Natsume's possession, the book gives Reiko's grandson this power as well, which is why these enraged beings now haunt him in hopes of somehow attaining their freedom. Without parents and a loving home, and constantly being hunted by hostile, merciless youkai, Natsume is looking for solace—a place where he belongs. However, his only companion is a self-proclaimed bodyguard named Madara. Fondly referred to as Nyanko-sensei, Madara is a mysterious, pint-sized feline spirit who has his own reasons for sticking with the boy. Based on the critically acclaimed manga by Yuki Midorikawa, Natsume Yuujinchou is an unconventional and supernatural slice-of-life series that follows Natsume as he, with his infamous protector Madara, endeavors to free the spirits bound by his grandmother's contract. ![](https://i.imgur.com/AmycQLb.png) --- **Comparison** (avc: source, hevc: encode) *Open links, toggle with mouseclick and check title.* [![](https://i.imgur.com/74YTxhg.png)](https://slow.pics/c/OArlkyQ2) [![](https://i.imgur.com/5g6hGEo.png)](https://slow.pics/c/5GJzxrQ6) [![](https://i.imgur.com/Cgg0mOz.png)](https://slow.pics/c/qcSmCETv) --- **Source** ?️ Video, Audio and Subs: [CyC] https://nyaa.si/view/1018060 ? *Subtitles Info: [moo-shi] - Format `ASS`* --- **Media Info** ``` General Unique ID : 107922703967247425802210833875790693738 (0x5131281F20C6CBB11DEDB7EC6F07856A) Complete name : Natume's Book of Friends - S01E01.mkv Format : Matroska Format version : Version 4 File size : 231 MiB Duration : 23 min 52 s Overall bit rate : 1 355 kb/s Movie name : Natume's Book of Friends - S01E01 Encoded date : UTC 2020-07-26 10:32:08 Writing application : mkvmerge v47.0.0 ('Black Flag') 64-bit Writing library : libebml v1.3.10 + libmatroska v1.5.2 / Lavf58.29.100 Attachments : ArnoPro-Regular.otf / EFN_OknoFont.ttf / FTLTLT_0.TTF / HOOTRG__.TTF / MKAbel.ttf / BAARS___.TTF Video ID : 1 Format : HEVC Format/Info : High Efficiency Video Coding Format profile : Main 10@L4@High Codec ID : V_MPEGH/ISO/HEVC Duration : 23 min 52 s Bit rate : 1 108 kb/s Width : 1 920 pixels Height : 1 080 pixels Display aspect ratio : 16:9 Frame rate mode : Constant Frame rate : 23.976 (24000/1001) FPS Color space : YUV Chroma subsampling : 4:2:0 Bit depth : 10 bits Bits/(Pixel*Frame) : 0.022 Stream size : 189 MiB (82%) Writing library : x265 3.2.1+1-b5c86a64bbbe:[Windows][GCC 9.2.0][64 bit] 10bit Encoding settings : cpuid=1111039 / frame-threads=2 / numa-pools=4 / wpp / no-pmode / no-pme / no-psnr / no-ssim / log-level=2 / input-csp=1 / input-res=1920x1080 / interlace=0 / total-frames=0 / level-idc=40 / high-tier=1 / uhd-bd=0 / ref=5 / no-allow-non-conformance / no-repeat-headers / annexb / no-aud / no-hrd / info / hash=0 / no-temporal-layers / open-gop / min-keyint=24 / keyint=240 / gop-lookahead=0 / bframes=8 / b-adapt=2 / b-pyramid / bframe-bias=0 / rc-lookahead=25 / lookahead-slices=4 / scenecut=40 / radl=0 / no-splice / no-intra-refresh / ctu=64 / min-cu-size=8 / rect / no-amp / max-tu-size=32 / tu-inter-depth=1 / tu-intra-depth=1 / limit-tu=0 / rdoq-level=2 / dynamic-rd=0.00 / no-ssim-rd / signhide / no-tskip / nr-intra=0 / nr-inter=0 / no-constrained-intra / strong-intra-smoothing / max-merge=3 / limit-refs=3 / limit-modes / me=3 / subme=3 / merange=57 / temporal-mvp / no-hme / weightp / no-weightb / no-analyze-src-pics / deblock=0:0 / sao / no-sao-non-deblock / rd=4 / selective-sao=4 / no-early-skip / rskip / no-fast-intra / no-tskip-fast / no-cu-lossless / no-b-intra / no-splitrd-skip / rdpenalty=0 / psy-rd=0.00 / psy-rdoq=1.00 / no-rd-refine / no-lossless / cbqpoffs=0 / crqpoffs=0 / rc=crf / crf=21.0 / qcomp=0.60 / qpstep=4 / stats-write=0 / stats-read=0 / vbv-maxrate=30000 / vbv-bufsize=30000 / vbv-init=0.9 / crf-max=0.0 / crf-min=0.0 / ipratio=1.40 / pbratio=1.30 / aq-mode=3 / aq-strength=0.80 / cutree / zone-count=0 / no-strict-cbr / qg-size=32 / no-rc-grain / qpmax=69 / qpmin=0 / no-const-vbv / sar=1 / overscan=0 / videoformat=5 / range=0 / colorprim=1 / transfer=1 / colormatrix=1 / chromaloc=0 / display-window=0 / cll=0,0 / min-luma=0 / max-luma=1023 / log2-max-poc-lsb=8 / vui-timing-info / vui-hrd-info / slices=1 / no-opt-qp-pps / no-opt-ref-list-length-pps / no-multi-pass-opt-rps / scenecut-bias=0.05 / no-opt-cu-delta-qp / no-aq-motion / no-hdr / no-hdr-opt / no-dhdr10-opt / no-idr-recovery-sei / analysis-reuse-level=5 / scale-factor=0 / refine-intra=0 / refine-inter=0 / refine-mv=1 / refine-ctu-distortion=0 / no-limit-sao / ctu-info=0 / no-lowpass-dct / refine-analysis-type=0 / copy-pic=1 / max-ausize-factor=1.0 / no-dynamic-refine / no-single-sei / no-hevc-aq / no-svt / no-field / qp-adaptation-range=1.00 Default : Yes Forced : No Color range : Limited Color primaries : BT.709 Transfer characteristics : BT.709 Matrix coefficients : BT.709 Audio ID : 2 Format : AAC LC Format/Info : Advanced Audio Codec Low Complexity Codec ID : A_AAC-2 Duration : 23 min 52 s Bit rate : 241 kb/s Channel(s) : 2 channels Channel layout : L R Sampling rate : 48.0 kHz Frame rate : 46.875 FPS (1024 SPF) Compression mode : Lossy Delay relative to video : -43 ms Stream size : 41.2 MiB (18%) Title : Stereo - JPN (AAC) Language : Japanese Default : Yes Forced : No Text ID : 3 Format : ASS Codec ID : S_TEXT/ASS Codec ID/Info : Advanced Sub Station Alpha Duration : 23 min 45 s Bit rate : 166 b/s Count of elements : 475 Compression mode : Lossless Stream size : 28.9 KiB (0%) Title : Dialog - ENG (ASS) Language : English Default : No Forced : No Menu 00:00:00.000 : :Opening 00:01:31.133 : :Part A 00:10:48.064 : :Part B 00:22:06.116 : :Ending 00:23:36.248 : :Preview ```

File list

  • [neoHEVC] Natsume's Book of Friends - Natsume Yuujinchou [Season 1] [BD 1080p x265 HEVC AAC]
    • Natume's Book of Friends - S01E01.mkv (231.4 MiB)
    • Natume's Book of Friends - S01E02.mkv (181.2 MiB)
    • Natume's Book of Friends - S01E03.mkv (294.6 MiB)
    • Natume's Book of Friends - S01E04.mkv (161.8 MiB)
    • Natume's Book of Friends - S01E05.mkv (181.9 MiB)
    • Natume's Book of Friends - S01E06.mkv (181.5 MiB)
    • Natume's Book of Friends - S01E07.mkv (198.3 MiB)
    • Natume's Book of Friends - S01E08.mkv (175.5 MiB)
    • Natume's Book of Friends - S01E09.mkv (185.8 MiB)
    • Natume's Book of Friends - S01E10.mkv (171.1 MiB)
    • Natume's Book of Friends - S01E11.mkv (180.4 MiB)
    • Natume's Book of Friends - S01E12.mkv (182.4 MiB)
    • Natume's Book of Friends - S01E13.mkv (208.8 MiB)
thank you for the re-encode's of this series
Thanks buddy so much
Hey, sorry to be ignorant. I'm wondering why the video for this anime is so "soft," for lack of a better way to put it. I'm not saying it's a bad thing. I just want to know if this was the way the producers intended for us to see the anime. See, it's obvious that the softness isn't because of the hevc re-encoding. Is it due to the source? Or, is this how Natsume Yuujincho was produced? The whole anime, visuals and subject, have a very dreamy quality. In a way, I'm wondering if the lack of crisp lines was actually a stylistic choice to portray some meaning. Or, is it the result of some technical limitations at the time of production..? I must know...
thank you!