[neoHEVC] Natsume's Book of Friends [Season 6 + Specials] [BD 1080p x265 HEVC AAC] Natsume Yuujinchou Roku

Category:
Date:
2020-08-05 16:47 UTC
Submitter:
Seeders:
42
Information:
Leechers:
0
File size:
2.3 GiB
Completed:
5939
Info hash:
e77c898828abf5c43f6ff48927b01f41dbf9711f
![](https://i.imgur.com/geEFUkn.png) *Join **[Discord](https://discord.gg/KYKYZUh)** for Current Projects, Encode-Requests and Seed-Request in case of no available seeds.* **Natsume's Book of Friends / Natsume Yuujinchou Roku [Season 6]** Including *[Season 6] Roku Specials (Episode 12+13)* *with `Jpn Dub` and `Eng Subs` in `BD 1080p HEVC`* Reencode of [CyC] (x264 AVC FLAC) to (x265 HEVC AAC). ![](https://i.imgur.com/4iegWLL.png) **[Trailer](https://www.youtube.com/watch?v=OBHMe0rOebo)** ![](https://i.imgur.com/3UxGuWB.png) ![](https://i.imgur.com/ZCtSawZ.png) **[MyAnimeList: Natsume's Book of Friends Season 6](https://myanimelist.net/anime/34591/Natsume_Yuujinchou_Roku)** ![](https://i.imgur.com/3UxGuWB.png) ![](https://i.imgur.com/ZCtSawZ.png) **[MyAnimeList:Natsume's Book of Friends Season 6 Specials](https://myanimelist.net/anime/36275/Natsume_Yuujinchou_Roku_Specials)** --- **Related Releases:** 1️⃣ [Season 1: Natsume Yuujinchou](https://nyaa.si/view/1267009) 2️⃣ [Season 2: Zoku Natsume Yuujinchou](https://nyaa.si/view/1267243) 3️⃣ [Season 3: Natsume Yuujinchou San](https://nyaa.si/view/1268047) 4️⃣ [Season 4: Natsume Yuujinchou Shi](https://nyaa.si/view/1268384) 5️⃣ [Season 5: Natsume Yuujinchou Go](https://nyaa.si/view/1268681) ▶️ [Movie: Ephemeral Bond / Utsusemi ni Musubu](https://nyaa.si/view/1269182) ▶️ [Movie: Ishi Okoshi to Ayashiki Raihousha ](https://nyaa.si/view/1401421) --- **Synopsis** Takashi Natsume has grown accustomed to his encounters with youkai through the Book of Friends, which contains the names of youkai whom his grandmother, Reiko Natsume, has sealed in contracts. These encounters allow Natsume to better understand the youkai, Reiko, and himself. The Book of Friends is a powerful tool that can be used to control youkai; it is sought after by both youkai and exorcists alike. Natsume just wants to live out his daily life in peace but is constantly disrupted by these experiences. If he is to end this torment, Natsume must explore more about the book and the world of exorcism, as well as begin to open his heart to those who can help him. ![](https://i.imgur.com/KGkdymD.png) --- **Comparison** (avc: source, hevc: encode) *Open links, toggle with mouseclick and check title.* [![](https://i.imgur.com/QG4J0AE.png)](https://slow.pics/c/15Ex6j0q) [![](https://i.imgur.com/pnxouId.png)](https://slow.pics/c/ncVzYS1K) [![](https://i.imgur.com/ODmIjsL.png)](https://slow.pics/c/CxSx56Ge) --- **Source** ?️ Video, Audio and Subs: [CyC] https://nyaa.si/view/1020458 ? *Subtitles Info: [Commie] - Format `ASS`* --- **Media Info** ``` General Unique ID : 58325392481498127787896633261202128474 (0x2BE10FDE90B1604F5402DF5F778CBE5A) Complete name : Natsume's Book of Friends (Roku) - S06E01.mkv Format : Matroska Format version : Version 4 File size : 204 MiB Duration : 23 min 52 s Overall bit rate : 1 196 kb/s Movie name : Natsume's Book of Friends (Roku) - S06E01 Encoded date : UTC 2020-07-27 18:21:30 Writing application : mkvmerge v47.0.0 ('Black Flag') 64-bit Writing library : libebml v1.3.10 + libmatroska v1.5.2 / Lavf58.29.100 Attachments : MISTRAL.TTF / BAARS___.TTF / EFN_OknoFont.ttf / FTLTLT_0.TTF / MKAbel.ttf / ArnoPro-Regular.otf Video ID : 1 Format : HEVC Format/Info : High Efficiency Video Coding Format profile : Main 10@L4@High Codec ID : V_MPEGH/ISO/HEVC Duration : 23 min 52 s Bit rate : 977 kb/s Width : 1 920 pixels Height : 1 080 pixels Display aspect ratio : 16:9 Frame rate mode : Constant Frame rate : 23.976 (24000/1001) FPS Color space : YUV Chroma subsampling : 4:2:0 Bit depth : 10 bits Bits/(Pixel*Frame) : 0.020 Stream size : 167 MiB (82%) Writing library : x265 3.2.1+1-b5c86a64bbbe:[Windows][GCC 9.2.0][64 bit] 10bit Encoding settings : cpuid=1111039 / frame-threads=2 / numa-pools=4 / wpp / no-pmode / no-pme / no-psnr / no-ssim / log-level=2 / input-csp=1 / input-res=1920x1080 / interlace=0 / total-frames=0 / level-idc=40 / high-tier=1 / uhd-bd=0 / ref=5 / no-allow-non-conformance / no-repeat-headers / annexb / no-aud / no-hrd / info / hash=0 / no-temporal-layers / open-gop / min-keyint=24 / keyint=240 / gop-lookahead=0 / bframes=8 / b-adapt=2 / b-pyramid / bframe-bias=0 / rc-lookahead=25 / lookahead-slices=4 / scenecut=40 / radl=0 / no-splice / no-intra-refresh / ctu=64 / min-cu-size=8 / rect / no-amp / max-tu-size=32 / tu-inter-depth=1 / tu-intra-depth=1 / limit-tu=0 / rdoq-level=2 / dynamic-rd=0.00 / no-ssim-rd / signhide / no-tskip / nr-intra=0 / nr-inter=0 / no-constrained-intra / strong-intra-smoothing / max-merge=3 / limit-refs=3 / limit-modes / me=3 / subme=3 / merange=57 / temporal-mvp / no-hme / weightp / no-weightb / no-analyze-src-pics / deblock=0:0 / sao / no-sao-non-deblock / rd=4 / selective-sao=4 / no-early-skip / rskip / no-fast-intra / no-tskip-fast / no-cu-lossless / no-b-intra / no-splitrd-skip / rdpenalty=0 / psy-rd=0.00 / psy-rdoq=1.00 / no-rd-refine / no-lossless / cbqpoffs=0 / crqpoffs=0 / rc=crf / crf=21.0 / qcomp=0.60 / qpstep=4 / stats-write=0 / stats-read=0 / vbv-maxrate=30000 / vbv-bufsize=30000 / vbv-init=0.9 / crf-max=0.0 / crf-min=0.0 / ipratio=1.40 / pbratio=1.30 / aq-mode=3 / aq-strength=0.80 / cutree / zone-count=0 / no-strict-cbr / qg-size=32 / no-rc-grain / qpmax=69 / qpmin=0 / no-const-vbv / sar=1 / overscan=0 / videoformat=5 / range=0 / colorprim=1 / transfer=1 / colormatrix=1 / chromaloc=0 / display-window=0 / cll=0,0 / min-luma=0 / max-luma=1023 / log2-max-poc-lsb=8 / vui-timing-info / vui-hrd-info / slices=1 / no-opt-qp-pps / no-opt-ref-list-length-pps / no-multi-pass-opt-rps / scenecut-bias=0.05 / no-opt-cu-delta-qp / no-aq-motion / no-hdr / no-hdr-opt / no-dhdr10-opt / no-idr-recovery-sei / analysis-reuse-level=5 / scale-factor=0 / refine-intra=0 / refine-inter=0 / refine-mv=1 / refine-ctu-distortion=0 / no-limit-sao / ctu-info=0 / no-lowpass-dct / refine-analysis-type=0 / copy-pic=1 / max-ausize-factor=1.0 / no-dynamic-refine / no-single-sei / no-hevc-aq / no-svt / no-field / qp-adaptation-range=1.00 Default : Yes Forced : No Color range : Limited Color primaries : BT.709 Transfer characteristics : BT.709 Matrix coefficients : BT.709 Audio ID : 2 Format : AAC LC Format/Info : Advanced Audio Codec Low Complexity Codec ID : A_AAC-2 Duration : 23 min 52 s Bit rate : 211 kb/s Channel(s) : 2 channels Channel layout : L R Sampling rate : 48.0 kHz Frame rate : 46.875 FPS (1024 SPF) Compression mode : Lossy Delay relative to video : -43 ms Stream size : 36.1 MiB (18%) Title : Stereo - JPN (AAC) Language : Japanese Default : Yes Forced : No Text ID : 3 Format : ASS Codec ID : S_TEXT/ASS Codec ID/Info : Advanced Sub Station Alpha Duration : 23 min 40 s Bit rate : 411 b/s Count of elements : 619 Compression mode : Lossless Stream size : 71.4 KiB (0%) Title : Dialog - ENG (ASS) Language : English Default : No Forced : No Menu 00:00:00.000 : :OP 00:01:30.048 : :Part A 00:14:16.105 : :Part B 00:22:05.115 : :ED 00:23:35.164 : :Preview ```

File list

  • [neoHEVC] Natsume's Book of Friends - Natsume Yuujinchou Roku [Season 6] [BD 1080p x265 HEVC AAC]
    • Natsume's Book of Friends (Roku) - S06E01.mkv (204.2 MiB)
    • Natsume's Book of Friends (Roku) - S06E02.mkv (179.4 MiB)
    • Natsume's Book of Friends (Roku) - S06E03.mkv (183.2 MiB)
    • Natsume's Book of Friends (Roku) - S06E04.mkv (171.2 MiB)
    • Natsume's Book of Friends (Roku) - S06E05.mkv (146.6 MiB)
    • Natsume's Book of Friends (Roku) - S06E06.mkv (157.4 MiB)
    • Natsume's Book of Friends (Roku) - S06E07.mkv (187.5 MiB)
    • Natsume's Book of Friends (Roku) - S06E08.mkv (185.5 MiB)
    • Natsume's Book of Friends (Roku) - S06E09.mkv (196.5 MiB)
    • Natsume's Book of Friends (Roku) - S06E10.mkv (180.1 MiB)
    • Natsume's Book of Friends (Roku) - S06E11.mkv (178.0 MiB)
    • Natsume's Book of Friends (Roku) - S06E12.mkv (206.3 MiB)
    • Natsume's Book of Friends (Roku) - S06E13.mkv (191.3 MiB)
Thank you One of the best encoders without a single doubt Keep up the good work !