[MiraiAnime] Hakugei: Legend of the Moby Dick (1997) [Complete] [BD 1080p x265 HEVC OPUS | AC3] [Dual-Audio] Densetsu White Whale

Category:
Date:
2023-04-21 22:00 UTC
Submitter:
Seeders:
7
Information:
Leechers:
2
File size:
11.2 GiB
Completed:
491
Info hash:
1262c117b5e9d9a14a48a420cf4cdf8a8b3ce8f3
|![](https://i.imgur.com/bVGbNMJ.jpg)| | :-----: | | [**Hakugei Densetsu \| Hakugei: Legend of the Moby Dick - MyAnimeList.net**](https://myanimelist.net/anime/1466/Hakugei_Densetsu?q=hakugei%20&cat=anime) | ___ #### **Information:** Video was deinterlaced, tcombed (m2), decimated, degrained, dehaloed, debanded and added grain. English audio is from hchcsen, who just removed their torrent for some reason?? It got the appropriate delays/cuts as either lossless trims or mkv delays. The subtitles have been restyled, timing shifted and added op/ed. Chapters are from the BDMV. Stereo jpn audio encoded with 256kbit/s, the english ac-3 tracks have been copied. If you want the source files of these, just ask. ___ ##### For requests or questions, join my (small) discord server here: **https://discord.gg/8n7H3ArdCW** ##### I highly suggest you to use [mpv](https://mpv.io/) for playback. ___ **Summary:** * styled op/ed * edited english audio (lossless) * encoded the jpn audio tracks from PCM to OPUS (opusenc) * encoded and filtered video tracks to HEVC (x265, crf 23) * naming scheme matches [AniDB.net](https://anidb.net/a3660) |Track-Type | Title | Attributes | | :-------------: |:-------------:| :-----:| |video|Japanese|x265 HEVC 10bit 23.976FPS 1440x1080| |audio|Japanese|48.0kHz stereo OPUS| |audio|English|48.0kHz 5.1 AC-3 (**default**)| |subtitles|Dialogue|ass| |subtitles|Sign&Songs|ass (**default**)| |chapters| ___ #### **Source:** **[BDMV@U2]** - video, jpn-audio, chapters **[hchcsen](https://nyaa.si/view/1304025)** - eng-audio, subtitles ([in their description](https://chauthanh.info/anime/view/hakugei-densetsu.html)), and yes I still have it on my drive ___ #### **FFprobe:** ``` Input #0, matroska,webm, from 'Hakugei - Legend of the Moby Dick (1997) - S01E01 - Drifting Place.mkv': Metadata: creation_time : 2023-04-21T14:34:35.000000Z ENCODER : Lavf60.3.100 Duration: 00:24:31.01, start: -0.007000, bitrate: 2379 kb/s Chapters: Chapter #0:0: start 0.000000, end 92.092000 Metadata: title : Chapter 1 Chapter #0:1: start 92.092000, end 172.305470 Metadata: title : Chapter 2 Chapter #0:2: start 172.305470, end 725.791750 Metadata: title : Chapter 3 Chapter #0:3: start 725.791750, end 1380.045300 Metadata: title : Chapter 4 Chapter #0:4: start 1380.045300, end 1471.002800 Metadata: title : Chapter 5 Stream #0:0(jpn): Video: hevc (Main 10), yuv420p10le(tv, bt709), 1440x1080, SAR 1:1 DAR 4:3, 23.98 fps, 23.98 tbr, 1k tbn (default) Metadata: title : [BDMV] Japanese BPS : 1862605 DURATION : 00:24:31.011000000 NUMBER_OF_FRAMES: 35269 NUMBER_OF_BYTES : 342489082 _STATISTICS_WRITING_APP: mkvmerge v75.0.0 ('Goliath') 64-bit _STATISTICS_WRITING_DATE_UTC: 2023-04-21 14:34:35 _STATISTICS_TAGS: BPS DURATION NUMBER_OF_FRAMES NUMBER_OF_BYTES Stream #0:1(jpn): Audio: opus, 48000 Hz, stereo, fltp Metadata: title : [BDMV] Japanese ENCODER : opusenc from opus-tools 0.2 ENCODER_OPTIONS : --bitrate 256k BPS : 251304 DURATION : 00:24:31.012000000 NUMBER_OF_FRAMES: 73551 NUMBER_OF_BYTES : 46209081 _STATISTICS_WRITING_APP: mkvmerge v75.0.0 ('Goliath') 64-bit _STATISTICS_WRITING_DATE_UTC: 2023-04-21 14:34:35 _STATISTICS_TAGS: BPS DURATION NUMBER_OF_FRAMES NUMBER_OF_BYTES Stream #0:2(eng): Audio: ac3, 48000 Hz, 5.1(side), fltp, 256 kb/s (default) Metadata: title : [hchcsen] English BPS : 256000 DURATION : 00:24:28.128000000 NUMBER_OF_FRAMES: 45879 NUMBER_OF_BYTES : 46980096 _STATISTICS_WRITING_APP: mkvmerge v75.0.0 ('Goliath') 64-bit _STATISTICS_WRITING_DATE_UTC: 2023-04-21 14:34:35 _STATISTICS_TAGS: BPS DURATION NUMBER_OF_FRAMES NUMBER_OF_BYTES Stream #0:3(eng): Subtitle: ass Metadata: title : [MiraiAnime] Dialogue BPS : 92 DURATION : 00:24:18.620000000 NUMBER_OF_FRAMES: 268 NUMBER_OF_BYTES : 16781 _STATISTICS_WRITING_APP: mkvmerge v75.0.0 ('Goliath') 64-bit _STATISTICS_WRITING_DATE_UTC: 2023-04-21 14:34:35 _STATISTICS_TAGS: BPS DURATION NUMBER_OF_FRAMES NUMBER_OF_BYTES Stream #0:4(eng): Subtitle: ass (default) Metadata: title : [MiraiAnime] Sign&Songs BPS : 18 DURATION : 00:22:57.420000000 NUMBER_OF_FRAMES: 41 NUMBER_OF_BYTES : 3105 _STATISTICS_WRITING_APP: mkvmerge v75.0.0 ('Goliath') 64-bit _STATISTICS_WRITING_DATE_UTC: 2023-04-21 14:34:35 _STATISTICS_TAGS: BPS DURATION NUMBER_OF_FRAMES NUMBER_OF_BYTES Stream #0:5: Attachment: ttf Metadata: filename : arialbd.ttf mimetype : application/x-truetype-font Stream #0:6: Attachment: ttf Metadata: filename : LATO_BLACK.ttf mimetype : application/x-truetype-font Stream #0:7: Attachment: ttf Metadata: filename : KGSHADOWOFTHEDAY.ttf mimetype : application/x-truetype-font Stream #0:8: Attachment: ttf Metadata: filename : BLOCK_BERTHOLD_REGULAR.ttf mimetype : application/x-truetype-font ``` *** #### **I've included two scripts. You can either deactivate the english-audio and sign&songs subs, or completely remove them. Please read-me.txt** *** #### **Many thanks to [Anonymous@U2] and [hchcsen](https://nyaa.si/user/hchcsen) for making this possible.** ___ If you find anything that seems out of the ordinary, just post a comment or in my discord and I'll take a look at it.

File list

  • Hakugei - Legend of the Moby Dick (1997) [BD 1080p HEVC OPUS] [Dual-Audio]
    • Season 1
      • Hakugei - Legend of the Moby Dick (1997) - S01E01 - Drifting Place.mkv (417.2 MiB)
      • Hakugei - Legend of the Moby Dick (1997) - S01E02 - Whale Hunters.mkv (506.6 MiB)
      • Hakugei - Legend of the Moby Dick (1997) - S01E03 - From a Cold Planet.mkv (520.8 MiB)
      • Hakugei - Legend of the Moby Dick (1997) - S01E04 - The White Demon.mkv (473.1 MiB)
      • Hakugei - Legend of the Moby Dick (1997) - S01E05 - Super Battleship Moby Dick.mkv (429.7 MiB)
      • Hakugei - Legend of the Moby Dick (1997) - S01E06 - Farewell! King Kuron.mkv (305.0 MiB)
      • Hakugei - Legend of the Moby Dick (1997) - S01E07 - Nice to Meet You, Haunted Ship.mkv (436.2 MiB)
      • Hakugei - Legend of the Moby Dick (1997) - S01E08 - My Dear Cape God.mkv (406.2 MiB)
      • Hakugei - Legend of the Moby Dick (1997) - S01E09 - Birth of a Fan Club.mkv (517.3 MiB)
      • Hakugei - Legend of the Moby Dick (1997) - S01E10 - Planet Moad.mkv (500.1 MiB)
      • Hakugei - Legend of the Moby Dick (1997) - S01E11 - Farewell, Lady Whisker.mkv (443.1 MiB)
      • Hakugei - Legend of the Moby Dick (1997) - S01E12 - Lovers.mkv (386.9 MiB)
      • Hakugei - Legend of the Moby Dick (1997) - S01E13 - Easy Rider.mkv (502.7 MiB)
      • Hakugei - Legend of the Moby Dick (1997) - S01E14 - The Lasala Express.mkv (491.5 MiB)
      • Hakugei - Legend of the Moby Dick (1997) - S01E15 - Songstress.mkv (438.3 MiB)
      • Hakugei - Legend of the Moby Dick (1997) - S01E16 - Detonator.mkv (379.4 MiB)
      • Hakugei - Legend of the Moby Dick (1997) - S01E17 - Declaration of Independence.mkv (490.7 MiB)
      • Hakugei - Legend of the Moby Dick (1997) - S01E18 - Legend of a Savage Beast.mkv (431.6 MiB)
      • Hakugei - Legend of the Moby Dick (1997) - S01E19 - Ahab's Eetaliation.mkv (457.7 MiB)
      • Hakugei - Legend of the Moby Dick (1997) - S01E20 - Descendant of the Tattoo Clan.mkv (454.7 MiB)
      • Hakugei - Legend of the Moby Dick (1997) - S01E21 - Comeback.mkv (369.7 MiB)
      • Hakugei - Legend of the Moby Dick (1997) - S01E22 - The Unforgivable Ones.mkv (430.7 MiB)
      • Hakugei - Legend of the Moby Dick (1997) - S01E23 - The Moad War Begins.mkv (345.7 MiB)
      • Hakugei - Legend of the Moby Dick (1997) - S01E24 - The Beginning of a Legend ... Wandering.mkv (408.3 MiB)
      • Hakugei - Legend of the Moby Dick (1997) - S01E25 - The Beginning of a Legend ... Countdown.mkv (502.5 MiB)
      • Hakugei - Legend of the Moby Dick (1997) - S01E26 - The Legend of the Whale Hunters.mkv (452.8 MiB)
    • Remove-Dub.bat (6.9 KiB)
    • Remove-Dub.sh (6.9 KiB)
    • Switch-to-Sub.bat (8.0 KiB)
    • Switch-to-Sub.sh (8.0 KiB)
    • read-me.txt (565 Bytes)
**appreciation* ![Eru-Ibara-300](https://i.postimg.cc/kXbpqPD2/300.gif)
@ThatWaxEllo Thank you very much
Many Thanks Excellent Job !! :) Top Notch Audio !! Good Show too. Very Appreciated :):)

ThatWaxEllo (uploader)

User
![](https://pbs.twimg.com/media/FJHKx6iXoAQa99Z.jpg)