[neoHEVC] Love Live! Superstar!! [Season 2] [BD 1080p x265 HEVC AAC]

Category:
Date:
2023-02-23 21:15 UTC
Submitter:
Seeders:
13
Information:
Leechers:
1
File size:
4.7 GiB
Completed:
792
Info hash:
423c1c033aa9df71f55f4fcf0b21c9e5d5997f4a
![](https://i.imgur.com/RBlGp48.png) *Come hang out in **[Discord](https://discord.gg/47Q7FdB54e)*** #### **[Love Live! Superstar!! [Season 2]](https://myanimelist.net/anime/50203/Love_Live_Superstar_2nd_Season)** ▶️ **[Trailer](https://www.youtube.com/watch?v=Y8f5XcHFZTM)** --- **Notes:** . Will update this once the English dub is out *(seriously, where that rabu raibu dub at >_<)* --- **Related Uploads:** ▶️ **[Season 1](https://nyaa.si/view/1548680)** --- **Synopsis** As another year begins at Yuigaoka Girls' High School, ushering in a fresh batch of students, the school idol club Liella! is excited to expand their membership. However, Liella! is extremely popular due to the astounding talent they have continuously displayed; thus, new students lack the courage to even consider approaching the club, fearing the rigorous training that might lie ahead. Amid her worries, club leader and co-founder Kanon Shibuya meets first-year student Kinako Sakurakouji and tells her about the world of school idols. This leaves Kinako in awe, but being fairly average herself, she feels she would not be capable of matching the spirited performances of the brilliant Liella! members. Nonetheless, Kinako receives encouragement to join the group and comes to share their dream of reaching for the stars once again in the grand Love Live! Competition. ![](https://i.imgur.com/sYlyS68.png) --- **Source** 🗃️ Video and JPN Audio (JPN BDMV): **[[KoushinRip]](https://nyaa.si/view/1583765)** 🗃️ Subtitles: **[[CookieSubs]](https://nyaa.si/view/1554375)** 💬 *Subtitles Info: [Team ONIBE] Base [CookieSubs] Edits* *Thank you all for making this possible <3* --- **Media Info** ``` General Unique ID : 219782825557654924137035124044990501107 (0xA558A1EB8B0839F723CC343074BFD0F3) Complete name : Love Live! Superstar!! - S02E01.mkv Format : Matroska Format version : Version 4 File size : 388 MiB Duration : 23 min 43 s Overall bit rate : 2 290 kb/s Movie name : Love Live! Superstar!! - S02E01 Encoded date : UTC 2023-02-23 21:05:22 Writing application : mkvmerge v72.0.0 ('Minuano (Six-eight)') 64-bit Writing library : libebml v1.4.4 + libmatroska v1.7.1 / Lavf58.76.100 Attachments : FOTK-YDGogooryoM.otf / GANDHISANS-BOLD.OTF / GANDHISANS-BOLDITALIC.OTF / GOTHICBI.TTF / HelveticaNeueLTStd-LtEx.1.otf / Arial Rounded MT.ttf / Arista2.0.ttf / augie.ttf / Chalkduster.ttf / Complete in Him.ttf Video ID : 1 Format : HEVC Format/Info : High Efficiency Video Coding Format profile : Main 10@L4@High Codec ID : V_MPEGH/ISO/HEVC Duration : 23 min 43 s Bit rate : 2 043 kb/s Width : 1 920 pixels Height : 1 080 pixels Display aspect ratio : 16:9 Frame rate mode : Constant Frame rate : 23.976 (24000/1001) FPS Color space : YUV Chroma subsampling : 4:2:0 Bit depth : 10 bits Bits/(Pixel*Frame) : 0.041 Stream size : 347 MiB (89%) Writing library : x265 3.5+1-f0c1022b6:[Windows][GCC 9.2.0][64 bit] 10bit Encoding settings : cpuid=1111039 / frame-threads=2 / numa-pools=4 / wpp / no-pmode / no-pme / no-psnr / no-ssim / log-level=2 / input-csp=1 / input-res=1920x1080 / interlace=0 / total-frames=0 / level-idc=40 / high-tier=1 / uhd-bd=0 / ref=5 / no-allow-non-conformance / no-repeat-headers / annexb / no-aud / no-hrd / info / hash=0 / no-temporal-layers / open-gop / min-keyint=24 / keyint=240 / gop-lookahead=0 / bframes=16 / b-adapt=2 / b-pyramid / bframe-bias=0 / rc-lookahead=120 / lookahead-slices=4 / scenecut=40 / hist-scenecut=0 / radl=0 / no-splice / no-intra-refresh / ctu=64 / min-cu-size=8 / rect / no-amp / max-tu-size=32 / tu-inter-depth=1 / tu-intra-depth=1 / limit-tu=0 / rdoq-level=1 / dynamic-rd=0.00 / no-ssim-rd / signhide / no-tskip / nr-intra=0 / nr-inter=0 / no-constrained-intra / no-strong-intra-smoothing / max-merge=3 / limit-refs=3 / limit-modes / me=3 / subme=3 / merange=57 / temporal-mvp / no-frame-dup / no-hme / weightp / no-weightb / no-analyze-src-pics / deblock=-1:-1 / no-sao / no-sao-non-deblock / rd=4 / selective-sao=0 / no-early-skip / rskip / no-fast-intra / no-tskip-fast / no-cu-lossless / no-b-intra / no-splitrd-skip / rdpenalty=0 / psy-rd=1.50 / psy-rdoq=1.50 / no-rd-refine / no-lossless / cbqpoffs=0 / crqpoffs=0 / rc=crf / crf=22.5 / qcomp=0.60 / qpstep=4 / stats-write=0 / stats-read=0 / vbv-maxrate=30000 / vbv-bufsize=30000 / vbv-init=0.9 / min-vbv-fullness=50.0 / max-vbv-fullness=80.0 / crf-max=0.0 / crf-min=0.0 / ipratio=1.40 / pbratio=1.30 / aq-mode=3 / aq-strength=0.80 / cutree / zone-count=0 / no-strict-cbr / qg-size=32 / no-rc-grain / qpmax=69 / qpmin=0 / no-const-vbv / sar=1 / overscan=0 / videoformat=5 / range=0 / colorprim=1 / transfer=1 / colormatrix=1 / chromaloc=0 / display-window=0 / cll=0,0 / min-luma=0 / max-luma=1023 / log2-max-poc-lsb=8 / vui-timing-info / vui-hrd-info / slices=1 / no-opt-qp-pps / no-opt-ref-list-length-pps / no-multi-pass-opt-rps / scenecut-bias=0.05 / hist-threshold=0.03 / no-opt-cu-delta-qp / no-aq-motion / no-hdr10 / no-hdr10-opt / no-dhdr10-opt / no-idr-recovery-sei / analysis-reuse-level=0 / analysis-save-reuse-level=0 / analysis-load-reuse-level=0 / scale-factor=0 / refine-intra=0 / refine-inter=0 / refine-mv=1 / refine-ctu-distortion=0 / no-limit-sao / ctu-info=0 / no-lowpass-dct / refine-analysis-type=0 / copy-pic=1 / max-ausize-factor=1.0 / no-dynamic-refine / no-single-sei / no-hevc-aq / no-svt / no-field / qp-adaptation-range=1.00 / scenecut-aware-qp=0conformance-window-offsets / right=0 / bottom=0 / decoder-max-rate=0 / no-vbv-live-multi-pass Default : Yes Forced : No Color range : Limited Color primaries : BT.709 Transfer characteristics : BT.709 Matrix coefficients : BT.709 Audio ID : 2 Format : AAC LC Format/Info : Advanced Audio Codec Low Complexity Codec ID : A_AAC-2 Duration : 23 min 43 s Bit rate : 218 kb/s Channel(s) : 2 channels Channel layout : L R Sampling rate : 48.0 kHz Frame rate : 46.875 FPS (1024 SPF) Compression mode : Lossy Delay relative to video : 7 ms Stream size : 36.9 MiB (10%) Title : Japanese Language : Japanese Default : Yes Forced : No Text ID : 3 Format : ASS Codec ID : S_TEXT/ASS Codec ID/Info : Advanced Sub Station Alpha Duration : 23 min 39 s Bit rate : 3 425 b/s Frame rate : 1.698 FPS Count of elements : 2411 Compression mode : Lossless Stream size : 594 KiB (0%) Title : Dialogue Language : English Default : Yes Forced : No Menu 00:00:00.000 : :Intro 00:01:21.980 : :OP 00:02:52.030 : :Episode 00:23:35.980 : :Preview ```

File list

  • [neoHEVC] Love Live! Superstar!! [Season 2] [BD 1080p x265 HEVC AAC]
    • Love Live! Superstar!! - S02E01.mkv (388.5 MiB)
    • Love Live! Superstar!! - S02E02.mkv (357.6 MiB)
    • Love Live! Superstar!! - S02E03.mkv (391.1 MiB)
    • Love Live! Superstar!! - S02E04.mkv (330.7 MiB)
    • Love Live! Superstar!! - S02E05.mkv (314.5 MiB)
    • Love Live! Superstar!! - S02E06.mkv (473.1 MiB)
    • Love Live! Superstar!! - S02E07.mkv (381.8 MiB)
    • Love Live! Superstar!! - S02E08.mkv (521.1 MiB)
    • Love Live! Superstar!! - S02E09.mkv (351.2 MiB)
    • Love Live! Superstar!! - S02E10.mkv (543.3 MiB)
    • Love Live! Superstar!! - S02E11.mkv (332.0 MiB)
    • Love Live! Superstar!! - S02E12.mkv (433.5 MiB)
Thank you very much!!
I'm still wondering why no one's uploaded a BD DUAL AUDIO for S1&2 OF Nijigasaki

neoborn (uploader)

User
**@JollyProductions** I for one was disappointed from nijigasaki season 1 and have tried to delete it's existence from memory. The whole solo idol thing wasn't really my thing :S