[neoHEVC] Love Live! Superstar!! [Season 1] [BD 1080p x265 HEVC AAC] [Dual Audio]

Category:
Date:
2022-07-03 13:26 UTC
Submitter:
Seeders:
15
Information:
Leechers:
1
File size:
4.6 GiB
Completed:
248
Info hash:
2f786fd1aa5b1c5cbbb7dea43b9fd8ca724e3b07
![](https://i.imgur.com/RBlGp48.png) *Join **[Discord](https://discord.gg/47Q7FdB54e)** for Current Projects and Seed-Request in case of no available seeds.* #### **Love Live! Superstar!! [Season 1]** Notes: . Added styled OPED from EP 1-10 to EP 11-12 . Restyled dialogue of EP 11-12 to match EP 1-10 . Added insert song lyrics and styling for EP 11-12 ![](https://i.imgur.com/ZCtSawZ.png) **[MyAnimeList](https://myanimelist.net/anime/41169/Love_Live_Superstar)** ![](https://i.imgur.com/3UxGuWB.png) ![](https://i.imgur.com/4iegWLL.png) **[Trailer](https://www.youtube.com/watch?v=MkQqGrmGjoI)** --- **Synopsis** Everyone has a dream they strive to achieve, and so does the musically talented Kanon Shibuya. However, due to her stage fright, Kanon fails to make it into Yuigaoka Girls' High School's music program and instead ends up in the general curriculum. Even though Kanon makes the conscious decision to quit music altogether, her classmate Tang Keke rekindles Kanon's passion for music with her own: a passion for school idols. Although Keke and Kanon try to form a school idol group, their effort meets strong objections from Ren Hazuki, the daughter of the school's director. Even so, the girls soon visit the director, who allows them to set up their school idol club under one condition—they must win first place at the Yoyogi School Idol Festival. The resilience of these aspiring idols is put to the test as they face the challenges that come their way. Throughout their journey, the girls make new friends and meet new members that join them to become the dazzling idols others can only imagine. ![](https://i.imgur.com/sYlyS68.png) --- **Language Options** I included two simple scripts that you can apply to these files to do the following (Windows only): 1. Make [Single Audio] Japanese: Throws out *English audio* and *Signs&Songs subtitles* tracks 2. Make [Single Audio] English: Throws out *Japanese audio* and *Dialogue subtitles* tracks To apply these put all the video files into the *Language Options* folder and run the .bat file. *Don't combine them and only use them once together with the base files.* --- **Source** 🗃️ Video (BDMV): **[Ronny]** 🗃️ JPN Audio (BDMV): **[Ronny]** 🗃️ ENG Audio (WEB): **[[NanDesuKa]](https://nyaa.si/view/1547414)** 🗃️ Subtitles: **[[jnzngn]](https://nyaa.si/view/1525623)** EP 1-10 **[[Team ONIBE]](https://nyaa.si/view/1442575)** EP 11-12 💬 *Subtitles Info: [Team ONIBE/jnzngn] EP 1-10 [Team ONIBE] EP 11-12* *Thank you all for making this possible <3* --- **Media Info** 🆔 [Full Mediainfo incl. Encoder Settings](https://pastebin.com/irgrTdyp) ``` General Unique ID : 9992895739980242876140641830464759957 (0x7848FCC77AF65E7AFCAEE90F2D9A895) Complete name : Love Live! Superstar!! - S01E01.mkv Format : Matroska Format version : Version 4 File size : 327 MiB Duration : 23 min 43 s Overall bit rate : 1 928 kb/s Movie name : Love Live! Superstar!! - S01E01 Encoded date : UTC 2022-07-02 10:36:29 Writing application : mkvmerge v57.0.0 ('Till The End') 64-bit Writing library : libebml v1.4.2 + libmatroska v1.6.4 Attachments : A-OTF-Jun34Pro-Medium-Kami.ttf / FOT- _ Std.otf / GANDHISANS-BOLD.OTF / GandhiSansBoldItalic.otf / Kalam-Regular.ttf / MAXWELLBOLD-KNK.TTF / medra_.ttf / ReenieBeanie-Regular.ttf / SUBWT_.ttf Video ID : 1 Format : HEVC Format/Info : High Efficiency Video Coding Format profile : Main 10@L4@High Codec ID : V_MPEGH/ISO/HEVC Duration : 23 min 43 s Bit rate : 1 537 kb/s Width : 1 920 pixels Height : 1 080 pixels Display aspect ratio : 16:9 Frame rate mode : Constant Frame rate : 23.976 (24000/1001) FPS Color space : YUV Chroma subsampling : 4:2:0 Bit depth : 10 bits Bits/(Pixel*Frame) : 0.031 Stream size : 261 MiB (80%) Writing library : x265 3.5+1-f0c1022b6:[Windows][GCC 9.2.0][64 bit] 10bit Encoding settings : <Check Link Above> Default : Yes Forced : No Color range : Limited Color primaries : BT.709 Transfer characteristics : BT.709 Matrix coefficients : BT.709 Audio #1 ID : 2 Format : AAC LC Format/Info : Advanced Audio Codec Low Complexity Codec ID : A_AAC-2 Duration : 23 min 42 s Bit rate : 128 kb/s Channel(s) : 2 channels Channel layout : L R Sampling rate : 44.1 kHz Frame rate : 43.066 FPS (1024 SPF) Compression mode : Lossy Delay relative to video : 18 ms Stream size : 21.7 MiB (7%) Title : English Language : English Default : Yes Forced : No Audio #2 ID : 3 Format : AAC LC Format/Info : Advanced Audio Codec Low Complexity Codec ID : A_AAC-2 Duration : 23 min 43 s Bit rate : 221 kb/s Channel(s) : 2 channels Channel layout : L R Sampling rate : 48.0 kHz Frame rate : 46.875 FPS (1024 SPF) Compression mode : Lossy Stream size : 37.4 MiB (11%) Title : Japanese Language : Japanese Default : No Forced : No Text #1 ID : 4 Format : ASS Codec ID : S_TEXT/ASS Codec ID/Info : Advanced Sub Station Alpha Duration : 23 min 35 s Bit rate : 4 272 b/s Count of elements : 4519 Compression mode : Lossless Stream size : 738 KiB (0%) Title : Signs & Songs Language : English Default : No Forced : Yes Text #2 ID : 5 Format : ASS Codec ID : S_TEXT/ASS Codec ID/Info : Advanced Sub Station Alpha Duration : 23 min 35 s Bit rate : 4 381 b/s Count of elements : 4888 Compression mode : Lossless Stream size : 757 KiB (0%) Title : Dialogue Language : English Default : Yes Forced : No Menu 00:00:00.000 : :Episode 00:20:23.240 : :Outro ```

File list

  • [neoHEVC] Love Live! Superstar!! [Season 1] [BD 1080p x265 HEVC AAC] [Dual Audio]
    • Language Options
      • 1. Make [Single Audio] English.bat (254 Bytes)
      • 1. Make [Single Audio] Japanese.bat (254 Bytes)
      • mkvmerge.exe (9.6 MiB)
      • readme.txt (512 Bytes)
    • Love Live! Superstar!! - S01E01.mkv (327.1 MiB)
    • Love Live! Superstar!! - S01E02.mkv (372.8 MiB)
    • Love Live! Superstar!! - S01E03.mkv (425.5 MiB)
    • Love Live! Superstar!! - S01E04.mkv (391.5 MiB)
    • Love Live! Superstar!! - S01E05.mkv (345.7 MiB)
    • Love Live! Superstar!! - S01E06.mkv (456.1 MiB)
    • Love Live! Superstar!! - S01E07.mkv (383.3 MiB)
    • Love Live! Superstar!! - S01E08.mkv (382.5 MiB)
    • Love Live! Superstar!! - S01E09.mkv (372.5 MiB)
    • Love Live! Superstar!! - S01E10.mkv (429.5 MiB)
    • Love Live! Superstar!! - S01E11.mkv (346.7 MiB)
    • Love Live! Superstar!! - S01E12.mkv (464.8 MiB)