[BlackLuster] Shingeki no Kyojin - Final Season -19 [1080p]

Category:
Date:
2022-01-23 17:49 UTC
Submitter:
Seeders:
39
File size:
458.2 MiB
Completed:
1438
Info hash:
9d456372decb284c7de62b849e41faaaca681450
Attack on Titan Final Season Part 2 Episode 19 with English subtitles. [Discord Server](https://discord.gg/aYvzChKZ4G) ![](https://i.ibb.co/ynSBL3T/attack-on-titan-final-season-poster-uhdpaper-com-hd-8-2112.jpg) ``` General Unique ID : 45658940002658674503948159326859579971 (0x2259978BDEF12434C27750BD04AC5243) Complete name : [BlackLuster] Shingeki no Kyojin - Final Season -19 [1080p].mkv Format : Matroska Format version : Version 4 File size : 458 MiB Duration : 23 min 55 s Overall bit rate mode : Variable Overall bit rate : 2 678 kb/s Encoded date : UTC 2022-01-23 17:48:17 Writing application : mkvmerge v64.0.0 ('Willows') 64-bit Writing library : libebml v1.4.2 + libmatroska v1.6.4 Video ID : 1 Format : AVC Format/Info : Advanced Video Codec Format profile : High@L4.1 Format settings : CABAC / 4 Ref Frames Format settings, CABAC : Yes Format settings, Reference frames : 4 frames Codec ID : V_MPEG4/ISO/AVC Duration : 23 min 55 s Bit rate mode : Variable Bit rate : 2 580 kb/s Maximum bit rate : 4 500 kb/s Width : 1 920 pixels Height : 1 080 pixels Display aspect ratio : 16:9 Frame rate mode : Constant Frame rate : 23.976 (24000/1001) FPS Color space : YUV Chroma subsampling : 4:2:0 Bit depth : 8 bits Scan type : Progressive Bits/(Pixel*Frame) : 0.052 Stream size : 441 MiB (96%) Writing library : VOLO1.4.1 Default : Yes Forced : No Audio ID : 2 Format : AAC LC Format/Info : Advanced Audio Codec Low Complexity Codec ID : A_AAC-2 Duration : 23 min 55 s Bit rate : 96.0 kb/s Channel(s) : 2 channels Channel layout : L R Sampling rate : 48.0 kHz Frame rate : 46.875 FPS (1024 SPF) Compression mode : Lossy Delay relative to video : -42 ms Stream size : 16.4 MiB (4%) Title : Japanese Language : Japanese Default : Yes Forced : No Text ID : 3 Format : ASS Codec ID : S_TEXT/ASS Codec ID/Info : Advanced Sub Station Alpha Duration : 23 min 53 s Bit rate : 84 b/s Count of elements : 291 Compression mode : Lossless Stream size : 14.9 KiB (0%) Title : English Language : English Default : Yes Forced : No ```

File list

  • [BlackLuster] Shingeki no Kyojin - Final Season -19 [1080p].mkv (458.2 MiB)

BlackLuster (uploader)

User
![](https://i.ibb.co/3yvMKDJ/1219cf7f6a7ffa0e22c63f30f4885db2.gif)
Good subs or nah
Very @konko_kun