[Tess] Submarine Super 99 (2003) [BD 1440x1080 HEVC AAC]

Category:
Date:
2021-04-19 23:18 UTC
Submitter:
Seeders:
8
Information:
Leechers:
1
File size:
9.7 GiB
Completed:
222
Info hash:
dc9566a51c09d91c9227f58643e5024ef4f0e45f
Source: US BDMV Subs: USBD PGS Uploader Notes: Ripped from my personal USBD. Source was pretty dirty. Filtered using denoise, deband, AA, and dehalo. Denoising was necessary to eliminate the very annoying amount of mosquito noise and shimmering present in the source. Reupload due to wrong codec in filenames the first time. | Source | Encode | | :-: | :-: | [![Ifykxv.th.png](https://i2.lensdump.com/i/Ifykxv.th.png)](https://i2.lensdump.com/i/Ifykxv.png) | [![IfyIFZ.th.png](https://i3.lensdump.com/i/IfyIFZ.th.png)](https://i3.lensdump.com/i/IfyIFZ.png) [![IfyCRC.th.png](https://i2.lensdump.com/i/IfyCRC.th.png)](https://i2.lensdump.com/i/IfyCRC.png) | [![Ifyg0P.th.png](https://i3.lensdump.com/i/Ifyg0P.th.png)](https://i3.lensdump.com/i/Ifyg0P.png) [![IfyJp5.th.png](https://i3.lensdump.com/i/IfyJp5.th.png)](https://i3.lensdump.com/i/IfyJp5.png) | [![Ifytoi.th.png](https://i.lensdump.com/i/Ifytoi.th.png)](https://i.lensdump.com/i/Ifytoi.png) [![IfyQFz.th.png](https://i3.lensdump.com/i/IfyQFz.th.png)](https://i3.lensdump.com/i/IfyQFz.png) | [![IfyR2o.th.png](https://i.lensdump.com/i/IfyR2o.th.png)](https://i.lensdump.com/i/IfyR2o.png) [![Ify9IT.th.png](https://i.lensdump.com/i/Ify9IT.th.png)](https://i.lensdump.com/i/Ify9IT.png) | [![IfyTJ9.th.png](https://i1.lensdump.com/i/IfyTJ9.th.png)](https://i1.lensdump.com/i/IfyTJ9.png) [![IfydBb.th.png](https://i.lensdump.com/i/IfydBb.th.png)](https://i.lensdump.com/i/IfydBb.png) | [![IfyEe2.th.png](https://i1.lensdump.com/i/IfyEe2.th.png)](https://i1.lensdump.com/i/IfyEe2.png) Mediainfo: >General >Unique ID : 297291019434166731785812226824808718604 (0xDFA82AEB47541796E8FF048DDC48610C) >Complete name : [Tess] Submarine Super 99 - 01 [BD 1440x1080 AVC AAC][0C389C6A].mkv >Format : Matroska >Format version : Version 4 >File size : 799 MiB >Duration : 24 min 36 s >Overall bit rate : 4 537 kb/s >Writing application : mkvmerge v56.1.0 ('My Friend') 64-bit >Writing library : libebml v1.4.2 + libmatroska v1.6.3 > >Video >ID : 1 >Format : HEVC >Format/Info : High Efficiency Video Coding >Format profile : Main 10@L4@Main >Codec ID : V_MPEGH/ISO/HEVC >Duration : 24 min 36 s >Bit rate : 4 251 kb/s >Width : 1 440 pixels >Height : 1 080 pixels >Display aspect ratio : 4:3 >Frame rate mode : Constant >Frame rate : 23.976 (24000/1001) FPS >Color space : YUV >Chroma subsampling : 4:2:0 >Bit depth : 10 bits >Bits/(Pixel*Frame) : 0.114 >Stream size : 748 MiB (94%) >Writing library : x265 3.5:[Linux][GCC 10.2.0][64 bit] 10bit >Encoding settings : cpuid=1111039 / frame-threads=4 / wpp / no-pmode / no-pme / no-psnr / no-ssim / log-level=2 / input-csp=1 / input-res=1440x1080 / interlace=0 / total-frames=0 / level-idc=0 / high-tier=1 / uhd-bd=0 / ref=4 / no-allow-non-conformance / no-repeat-headers / annexb / no-aud / no-hrd / info / hash=0 / no-temporal-layers / open-gop / min-keyint=23 / keyint=250 / gop-lookahead=0 / bframes=8 / b-adapt=2 / b-pyramid / bframe-bias=0 / rc-lookahead=25 / lookahead-slices=4 / scenecut=40 / hist-scenecut=0 / radl=0 / no-splice / no-intra-refresh / ctu=64 / min-cu-size=8 / rect / no-amp / max-tu-size=32 / tu-inter-depth=1 / tu-intra-depth=1 / limit-tu=0 / rdoq-level=2 / dynamic-rd=0.00 / no-ssim-rd / signhide / no-tskip / nr-intra=0 / nr-inter=0 / no-constrained-intra / no-strong-intra-smoothing / max-merge=3 / limit-refs=3 / limit-modes / me=3 / subme=3 / merange=57 / temporal-mvp / no-frame-dup / no-hme / weightp / no-weightb / no-analyze-src-pics / deblock=-1:-1 / no-sao / no-sao-non-deblock / rd=4 / selective-sao=0 / no-early-skip / rskip / no-fast-intra / no-tskip-fast / no-cu-lossless / no-b-intra / no-splitrd-skip / rdpenalty=0 / psy-rd=1.50 / psy-rdoq=4.00 / no-rd-refine / no-lossless / cbqpoffs=0 / crqpoffs=0 / rc=crf / crf=15.0 / qcomp=0.60 / qpstep=4 / stats-write=0 / stats-read=0 / ipratio=1.40 / pbratio=1.30 / aq-mode=3 / aq-strength=1.00 / cutree / zone-count=0 / no-strict-cbr / qg-size=32 / no-rc-grain / qpmax=69 / qpmin=0 / no-const-vbv / sar=0 / overscan=0 / videoformat=5 / range=0 / colorprim=2 / transfer=2 / colormatrix=2 / chromaloc=0 / display-window=0 / cll=0,0 / min-luma=0 / max-luma=1023 / log2-max-poc-lsb=8 / vui-timing-info / vui-hrd-info / slices=1 / no-opt-qp-pps / no-opt-ref-list-length-pps / no-multi-pass-opt-rps / scenecut-bias=0.05 / hist-threshold=0.03 / no-opt-cu-delta-qp / no-aq-motion / no-hdr10 / no-hdr10-opt / no-dhdr10-opt / no-idr-recovery-sei / analysis-reuse-level=0 / analysis-save-reuse-level=0 / analysis-load-reuse-level=0 / scale-factor=0 / refine-intra=0 / refine-inter=0 / refine-mv=1 / refine-ctu-distortion=0 / no-limit-sao / ctu-info=0 / no-lowpass-dct / refine-analysis-type=0 / copy-pic=1 / max-ausize-factor=1.0 / no-dynamic-refine / no-single-sei / no-hevc-aq / no-svt / no-field / qp-adaptation-range=1.00 / scenecut-aware-qp=0conformance-window-offsets / right=0 / bottom=0 / decoder-max-rate=0 / no-vbv-live-multi-pass >Default : Yes >Forced : No >Color range : Limited > >Audio >ID : 2 >Format : AAC LC >Format/Info : Advanced Audio Codec Low Complexity >Codec ID : A_AAC-2 >Duration : 24 min 36 s >Bit rate : 265 kb/s >Channel(s) : 2 channels >Channel layout : L R >Sampling rate : 48.0 kHz >Frame rate : 46.875 FPS (1024 SPF) >Compression mode : Lossy >Delay relative to video : 20 ms >Stream size : 46.5 MiB (6%) >Language : Japanese >Default : Yes >Forced : No > >Text >ID : 3 >Format : PGS >Muxing mode : zlib >Codec ID : S_HDMV/PGS >Codec ID/Info : Picture based subtitle format used on BDs/HD-DVDs >Duration : 24 min 26 s >Bit rate : 42.3 kb/s >Count of elements : 626 >Stream size : 7.40 MiB (1%) >Language : English >Default : Yes >Forced : No > >Menu >00:00:00.000 : Chapter 01 >00:01:30.048 : Chapter 02 >00:11:21.972 : Chapter 03 >00:22:46.865 : Chapter 04 >00:23:06.843 : Chapter 05 > >

File list

  • [Tess] Submarine Super 99 [BD 1440x1080 HEVC AAC]
    • [Tess] Submarine Super 99 - 01 [BD 1440x1080 HEVC AAC][0C389C6A].mkv (798.7 MiB)
    • [Tess] Submarine Super 99 - 02 [BD 1440x1080 HEVC AAC][059F496C].mkv (743.7 MiB)
    • [Tess] Submarine Super 99 - 03 [BD 1440x1080 HEVC AAC][63CB6433].mkv (627.0 MiB)
    • [Tess] Submarine Super 99 - 04 [BD 1440x1080 HEVC AAC][504DF8FE].mkv (685.4 MiB)
    • [Tess] Submarine Super 99 - 05 [BD 1440x1080 HEVC AAC][7E9859C0].mkv (770.2 MiB)
    • [Tess] Submarine Super 99 - 06 [BD 1440x1080 HEVC AAC][180F1DB8].mkv (710.6 MiB)
    • [Tess] Submarine Super 99 - 07 [BD 1440x1080 HEVC AAC][A04F0F53].mkv (840.7 MiB)
    • [Tess] Submarine Super 99 - 08 [BD 1440x1080 HEVC AAC][F8314E41].mkv (774.4 MiB)
    • [Tess] Submarine Super 99 - 09 [BD 1440x1080 HEVC AAC][3AAA6D39].mkv (859.0 MiB)
    • [Tess] Submarine Super 99 - 10 [BD 1440x1080 HEVC AAC][8C667E36].mkv (785.9 MiB)
    • [Tess] Submarine Super 99 - 11 [BD 1440x1080 HEVC AAC][84E3CD19].mkv (745.3 MiB)
    • [Tess] Submarine Super 99 - 12 [BD 1440x1080 HEVC AAC][4AF93B77].mkv (744.8 MiB)
    • [Tess] Submarine Super 99 - 13 [BD 1440x1080 HEVC AAC][51947575].mkv (747.5 MiB)
    • [Tess] Submarine Super 99 - NCED [BD 1440x1080 HEVC AAC][DA76D107].mkv (28.9 MiB)
    • [Tess] Submarine Super 99 - NCOP [BD 1440x1080 HEVC AAC][735E7304].mkv (84.1 MiB)
![alt text](https://i.ibb.co/2ssgmGz/Thanks.png "Thanks")
Thank you for this :) quite an interesting rarity; looks like a Space Battleship Yamato in water with Captain Harlock characters :) Given the small amount of banding & movement distortion I guess half file sizes would have made little difference but very glad to be able to watch this. Nice Job all in all :) Cannot wait for next episode to download! PS. Thank godz it is not in full BD format! :):)
what about FLAC and x264?