[Oyasumi] Welcome to the NHK | NHK ni Youkoso! [DVD 480p]

Category:
Date:
2020-05-31 21:02 UTC
Submitter:
Seeders:
5
Information:
No information.
Leechers:
1
File size:
6.2 GiB
Completed:
460
Info hash:
c83f338182f76c7160c5d94779a4a4a621e676d3
Video: [Exiled-Destiny](https://nyaa.si/view/675127 'https://nyaa.si/view/675127') Subs: [Oyasumi Modified by Nanone](https://nyaa.si/view/675127#comments 'https://nyaa.si/view/675127#comments') Uploader Notes: This is just a mux I put together for a few reasons. Firstly attaching fonts to mkvs is annoying and Nanone didn't include all the necessary fonts (To their credit though they were windows standard fonts but I don't have these since I use linux). Secondly the other releases that use Oyasumi's subs don't have typesetting or KFX and I consider Nanone's subs to be some of the best available. I checked each sub file with aegisub's font collecter then split them into folders. Properly muxing only the needed fonts for a sub file proved more difficult than I expected since mkvmerge doesn't support wildcard statements. So I just used some rather ugly oneliner with a nested loop in bash. >for i in {01..24}; do echo "--output '[Oyasumi] Welcome to the NHK - $i [DVD 480p].mkv'" --audio-tracks 2 --no-subtitles --track-name 0:Exiled-Destiny --default-track 0:yes --default-track 2:yes \'\(\' \'$(ls '[Exiled-Destiny]_Welcome_To_The_NHK_Ep'"$i"\*.mkv)\' \'\)\' --language 0:eng --track-name 0:Oyasumi --default-track 0:yes \'\(\' ./"$i"/"$i".ass \'\)\' "$(for f in ./$i/\*.ttf; do base="$(basename "$f")" && echo -n '--attachment-name '\'"$(basename "$f")"\'' --attachment-mime-type application/x-truetype-font --attach-file '\'"$f"\'\ ; done)"--track-order 0:0,0:2,1:0 --no-date | xargs mkvmerge; done If you want to mux the [Exiled-Destiny](https://nyaa.si/view/675127 'https://nyaa.si/view/675127') files yourself here's a patch I put together (Only for Linux systems or maybe windows with WSL or something ¯\_(ツ)_/¯) [Link](https://files.catbox.moe/3ajbrf.zip 'https://files.catbox.moe/3ajbrf.zip') [Backup Link](https://anonfiles.com/f7h6h14bo2/oyasumi_zip 'https://anonfiles.com/f7h6h14bo2/oyasumi_zip') Mediainfo: >General >Unique ID : 288767232021548042305277424450805235344 (0xD93E8BC0CF9A60B29CCD4D7E12A4FE90) >Complete name : [Oyasumi] Welcome to the NHK - 01 [DVD 480p][94230F0A].mkv >Format : Matroska >Format version : Version 4 >File size : 266 MiB >Duration : 23 min 41 s >Overall bit rate : 1 569 kb/s >Writing application : mkvmerge v46.0.0 ('No Deeper Escape') 64-bit >Writing library : libebml v1.3.10 + libmatroska v1.5.2 >Attachments : CyrillicHover.ttf / Franklin Gothic Medium Cond.ttf / Gill Sans MT Condensed Bold.ttf / impact.ttf / JakobExtraCTT.ttf / segoeprb.ttf / segoepr.ttf / SegoeSb.ttf > >Video >ID : 1 >Format : AVC >Format/Info : Advanced Video Codec >Format profile : High@L5.1 >Format settings : CABAC / 8 Ref Frames >Format settings, CABAC : Yes >Format settings, Reference frames : 8 frames >Codec ID : V_MPEG4/ISO/AVC >Duration : 23 min 41 s >Bit rate : 1 336 kb/s >Nominal bit rate : 1 641 kb/s >Width : 720 pixels >Height : 480 pixels >Display aspect ratio : 16:9 >Original display aspect ratio : 3:2 >Frame rate mode : Variable >Frame rate : 24.386 FPS >Original frame rate : 29.970 (30000/1001) FPS >Color space : YUV >Chroma subsampling : 4:2:0 >Bit depth : 8 bits >Scan type : Progressive >Bits/(Pixel*Frame) : 0.159 >Stream size : 226 MiB (85%) >Title : Exiled-Destiny >Writing library : x264 core 56 svn-680 >Encoding settings : cabac=1 / ref=5 / deblock=1:-1:-1 / analyse=0x3:0x133 / me=umh / subme=7 / brdo=1 / mixed_ref=1 / me_range=16 / chroma_me=1 / trellis=1 / 8x8dct=1 / cqm=0 / deadzone=21,11 / chroma_qp_offset=0 / threads=1 / nr=0 / decimate=0 / mbaff=0 / bframes=2 / b_pyramid=1 / b_adapt=1 / b_bias=0 / direct=3 / wpredb=1 / bime=1 / keyint=250 / keyint_min=25 / scenecut=40 / rc=2pass / bitrate=1641 / ratetol=1.0 / rceq='blurCplx^(1-qComp)' / qcomp=0.60 / qpmin=10 / qpmax=51 / qpstep=4 / cplxblur=20.0 / qblur=0.5 / ip_ratio=1.40 / pb_ratio=1.30 >Default : Yes >Forced : No > >Audio >ID : 2 >Format : AC-3 >Format/Info : Audio Coding 3 >Commercial name : Dolby Digital >Codec ID : A_AC3 >Duration : 23 min 41 s >Bit rate mode : Constant >Bit rate : 224 kb/s >Channel(s) : 2 channels >Channel layout : L R >Sampling rate : 48.0 kHz >Frame rate : 31.250 FPS (1536 SPF) >Compression mode : Lossy >Stream size : 37.9 MiB (14%) >Language : Japanese >Service kind : Complete Main >Default : Yes >Forced : No > >Text >ID : 3 >Format : ASS >Codec ID : S_TEXT/ASS >Codec ID/Info : Advanced Sub Station Alpha >Duration : 23 min 27 s >Bit rate : 262 b/s >Count of elements : 405 >Compression mode : Lossless >Stream size : 45.0 KiB (0%) >Title : Oyasumi >Language : English >Default : Yes >Forced : No > >

File list

  • [Oyasumi] Welcome to the NHK [DVD 480p]
    • [Oyasumi] Welcome to the NHK - 01 [DVD 480p][94230F0A].mkv (265.8 MiB)
    • [Oyasumi] Welcome to the NHK - 02 [DVD 480p][0B5555FB].mkv (265.1 MiB)
    • [Oyasumi] Welcome to the NHK - 03 [DVD 480p][8A11CFFF].mkv (265.1 MiB)
    • [Oyasumi] Welcome to the NHK - 04 [DVD 480p][2B5EA2FF].mkv (265.8 MiB)
    • [Oyasumi] Welcome to the NHK - 05 [DVD 480p][E2CB7D10].mkv (264.1 MiB)
    • [Oyasumi] Welcome to the NHK - 06 [DVD 480p][A824E548].mkv (263.2 MiB)
    • [Oyasumi] Welcome to the NHK - 07 [DVD 480p][47E3D4BE].mkv (263.3 MiB)
    • [Oyasumi] Welcome to the NHK - 08 [DVD 480p][BCBF69CA].mkv (263.6 MiB)
    • [Oyasumi] Welcome to the NHK - 09 [DVD 480p][6DE069CA].mkv (263.4 MiB)
    • [Oyasumi] Welcome to the NHK - 10 [DVD 480p][E109CBB6].mkv (263.5 MiB)
    • [Oyasumi] Welcome to the NHK - 11 [DVD 480p][1C350541].mkv (263.4 MiB)
    • [Oyasumi] Welcome to the NHK - 12 [DVD 480p][EA0118BA].mkv (263.8 MiB)
    • [Oyasumi] Welcome to the NHK - 13 [DVD 480p][DC844A4D].mkv (263.4 MiB)
    • [Oyasumi] Welcome to the NHK - 14 [DVD 480p][FC563AD1].mkv (263.9 MiB)
    • [Oyasumi] Welcome to the NHK - 15 [DVD 480p][FB10945D].mkv (263.6 MiB)
    • [Oyasumi] Welcome to the NHK - 16 [DVD 480p][CFB8564F].mkv (263.4 MiB)
    • [Oyasumi] Welcome to the NHK - 17 [DVD 480p][73E9AE58].mkv (263.4 MiB)
    • [Oyasumi] Welcome to the NHK - 18 [DVD 480p][B31669BB].mkv (263.3 MiB)
    • [Oyasumi] Welcome to the NHK - 19 [DVD 480p][BFF47480].mkv (263.3 MiB)
    • [Oyasumi] Welcome to the NHK - 20 [DVD 480p][73834ADD].mkv (263.3 MiB)
    • [Oyasumi] Welcome to the NHK - 21 [DVD 480p][9CEE05D3].mkv (263.9 MiB)
    • [Oyasumi] Welcome to the NHK - 22 [DVD 480p][7E17C5FC].mkv (263.1 MiB)
    • [Oyasumi] Welcome to the NHK - 23 [DVD 480p][3BEEAFF2].mkv (263.0 MiB)
    • [Oyasumi] Welcome to the NHK - 24 [DVD 480p][FDD934BC].mkv (263.2 MiB)
You could have just done this to attach all fonts in Windows. You have to be in the folder containing the .mkv files and you need mkvpropedit. It should be easy to change the script to work in bash. I don't use bash myself. ``for %i in (*.mkv) do (for %j in ("path-to-folder-containing-fonts\*.*") do mkvpropedit "%i" --add-attachment "%j")``
lmao here I am trying to check if there are new subs for this show, then I realised you used edited subs from an old account of mine. They're not half bad, but maybe I'll redo them one day. Thanks anyway.