[OsisBejat] Seitokai Yakuindomo Movie [HEVC][1080p][AAC][Chinese Hardsubs]

Category:
Date:
2018-01-25 09:41 UTC
Submitter:
Seeders:
1
Information:
No information.
Leechers:
0
File size:
729.7 MiB
Completed:
1084
Info hash:
569d44159b3494ff5cf3da7181a6a27e958aad0c
### DVDRip **[here](https://nyaa.si/view/1016665)** #### Re-encode from [cqqld](https://nyaa.si/view/964605) ![alt text](https://i.imgur.com/qEBMPbV.jpg) #### MediaInfo : ``` Video ID : 1 Format : HEVC Format/Info : High Efficiency Video Coding Format profile : Main@L4@Main Codec ID : V_MPEGH/ISO/HEVC Duration : 1 h 0 min Bit rate : 1 482 kb/s Width : 1 920 pixels Height : 1 080 pixels Display aspect ratio : 16:9 Frame rate mode : Constant Frame rate : 23.976 (24000/1001) FPS Color space : YUV Chroma subsampling : 4:2:0 Bit depth : 8 bits Bits/(Pixel*Frame) : 0.030 Stream size : 645 MiB (88%) Title : [OsisBejat] Seitokai Yakuindomo Movie Writing library : x265 2.1:[Windows][GCC 5.3.1][64 bit] 8bit Encoding settings : wpp / ctu=32 / min-cu-size=16 / max-tu-size=32 / tu-intra-depth=1 / tu-inter-depth=1 / me=0 / subme=0 / merange=57 / no-rect / no-amp / max-merge=2 / temporal-mvp / early-skip / rskip / rdpenalty=0 / no-tskip / no-tskip-fast / no-strong-intra-smoothing / no-lossless / no-cu-lossless / no-constrained-intra / fast-intra / open-gop / no-temporal-layers / interlace=0 / keyint=240 / min-keyint=24 / scenecut=0 / rc-lookahead=5 / lookahead-slices=6 / bframes=3 / bframe-bias=0 / b-adapt=0 / ref=1 / limit-refs=0 / no-limit-modes / no-weightp / no-weightb / aq-mode=1 / qg-size=32 / aq-strength=0.00 / cbqpoffs=0 / crqpoffs=0 / rd=2 / psy-rd=2.00 / rdoq-level=0 / psy-rdoq=0.00 / log2-max-poc-lsb=8 / no-rd-refine / no-signhide / deblock=0:0 / no-sao / no-sao-non-deblock / b-pyramid / cutree / no-intra-refresh / rc=crf / crf=22.0 / qcomp=0.60 / qpmin=0 / qpmax=69 / qpstep=4 / ipratio=1.40 / pbratio=1.30 Language : Japanese Default : Yes Forced : No Color range : Limited Color primaries : BT.709 Transfer characteristics : BT.709 Matrix coefficients : BT.709 Audio ID : 2 Format : AAC Format/Info : Advanced Audio Codec Format profile : LC Codec ID : A_AAC Duration : 1 h 0 min Bit rate : 192 kb/s Channel(s) : 2 channels Channel positions : Front: L R Sampling rate : 48.0 kHz Frame rate : 46.875 FPS (1024 SPF) Compression mode : Lossy Stream size : 83.6 MiB (11%) Language : Japanese Default : Yes Forced : No ``` #### Please continue seeding Senpai, if possible 😊

File list

  • [OsisBejat] Seitokai Yakuindomo Movie [HEVC][1080p][AAC][Chinese Hardsubs].mkv (729.7 MiB)
OsisBejat hmm kek indo nih :3
Sooo, still with hardsubs...