【vomiku】Magical Mirai 2016[BDrip][1080P60][HEVC_YUV420p10_FLAC][JPN&CHS_Sub]

Category:
Date:
2018-02-02 02:14 UTC
Submitter:
Seeders:
0
Information:
vomiku.com
Leechers:
3
File size:
7.5 GiB
Completed:
21
Info hash:
ece571175d790f9bdcebf691d7abd8a89d58ff8f
已经上传到迅雷离线,使用迅雷会员即可离线极速下载。 Files have been uploaded to Thunder lixian, using Thunder VIP to speed faster download. 【Video info】: Format : Matroska Format version : Version 4 / Version 2 File size : 7.47 GiB Duration : 1 h 59 min Overall bit rate mode : Variable Overall bit rate : 8 949 kb/s Encoded date : UTC 2018-01-08 10:30:28 Writing application : mkvmerge v12.0.0 ('Trust / Lust') 64bit Writing library : libebml v1.3.4 + libmatroska v1.4.5 Video ID : 1 Format : HEVC Format/Info : High Efficiency Video Coding Format profile : Main 10@L5@Main Codec ID : V_MPEGH/ISO/HEVC Duration : 1 h 59 min Bit rate : 6 987 kb/s Width : 1 920 pixels Height : 1 080 pixels Display aspect ratio : 16:9 Frame rate mode : Constant Frame rate : 59.940 (60000/1001) FPS Original frame rate : 59.940 (59940/1000) FPS Color space : YUV Chroma subsampling : 4:2:0 Bit depth : 10 bits Bits/(Pixel*Frame) : 0.056 Stream size : 5.83 GiB (78%) Writing library : x265 2.3+9-820f4327ddac44de:[Windows][GCC 6.3.0][64 bit] 10bit: KG7x [x265.ru] Default : Yes Forced : No Audio ID : 2 Format : FLAC Format/Info : Free Lossless Audio Codec Codec ID : A_FLAC Duration : 1 h 59 min Bit rate mode : Variable Bit rate : 1 958 kb/s Channel(s) : 2 channels Channel positions : Front: L R Sampling rate : 48.0 kHz Frame rate : 11.719 FPS (4096 SPF) Bit depth : 24 bits Stream size : 1.63 GiB (22%) Writing library : libFLAC 1.2.1 (UTC 2007-09-17) Language : Japanese Default : Yes Forced : No Menu 00:00:00.000 : ja:00. Start 00:02:01.620 : ja:01. 39みゅーじっく! / みきとP 00:06:18.711 : ja:02. ゴーストルール / DECO*27 00:10:00.600 : ja:03. ヒビカセ / GigaReol 00:14:16.554 : ja:---MC 1--- 00:14:57.562 : ja:04. Strangers / Heavenz 00:19:28.666 : ja:05. すろぉもぉしょん / ピノキオピー 00:24:42.980 : ja:06. 独りんぼエンヴィー / koyori(電ポルP) 00:28:07.684 : ja:07. タイムマシン / 1640mP 00:32:12.931 : ja:08. Hello, Worker / KEI 00:36:05.496 : ja:09. どりーみんチュチュ / emon 00:40:11.409 : ja:10. 愛Dee / Mitchie M 00:44:58.695 : ja:11. ドクター=ファンクビート / nyanyannya 00:48:31.574 : ja:12. Nostalogic (MEIKO-SAN mix) / yuukiss 00:52:34.951 : ja:13. どうぶつ占い / すこっぷ 00:57:20.936 : ja:14. Calc. / ジミーサムP 01:01:17.172 : ja:15. ウミユリ海底譚 / n-buna 01:05:19.414 : ja:16. テレカクシ思春期 / HoneyWorks 01:08:48.623 : ja:17. スイートマジック / Junky 01:12:25.340 : ja:18. リモコン / じーざす(ワンダフル☆オポチュニティ! ) 01:17:39.988 : ja:---Band Member Introduction--- 01:19:43.944 : ja:19. Baby Maniacs -Eight Mix- / 八王子P 01:23:15.489 : ja:20. ラズベリー*モンスター / HoneyWorks 01:26:15.235 : ja:21. 39 / sasakure.UK×DECO*27 01:30:03.631 : ja:22. shake it! / emon 01:34:10.144 : ja:23. ray / BUMP OF CHICKEN 01:39:59.993 : ja:---ENCORE--- 01:41:20.573 : ja:24. Satisfaction / livetune 01:44:46.279 : ja:25. なりすましゲンガー / KulfiQ 01:48:24.163 : ja:26. Hand in Hand / livetune 01:54:07.506 : ja:---MC 2--- 01:54:57.890 : ja:End. Tears River / みきとP

File list

Comments - 0