【vomiku】Magical Mirai 2014[BDrip][1080P60][HEVC_YUV420p10_FLAC][JPN&CHS_Sub]

Category:
Date:
2018-02-02 02:11 UTC
Submitter:
Seeders:
0
Information:
vomiku.com
Leechers:
0
File size:
7.6 GiB
Completed:
18
Info hash:
1eb9f81ff9bbfeb52992f641b5e6814767f55f04
已经上传到迅雷离线,使用迅雷会员即可离线极速下载。 Files have been uploaded to Thunder lixian, using Thunder VIP to speed faster download. 【Video info】: Format : Matroska Format version : Version 4 / Version 2 File size : 7.55 GiB Duration : 1 h 55 min Overall bit rate : 9 370 kb/s Encoded date : UTC 2018-01-07 09:58:01 Writing application : mkvmerge v12.0.0 ('Trust / Lust') 64bit Writing library : libebml v1.3.4 + libmatroska v1.4.5 Video ID : 1 Format : HEVC Format/Info : High Efficiency Video Coding Format profile : Main 10@L5@Main Codec ID : V_MPEGH/ISO/HEVC Duration : 1 h 55 min Bit rate : 7 060 kb/s Width : 1 920 pixels Height : 1 080 pixels Display aspect ratio : 16:9 Frame rate mode : Constant Frame rate : 59.940 (60000/1001) FPS Original frame rate : 59.940 (59940/1000) FPS Color space : YUV Chroma subsampling : 4:2:0 Bit depth : 10 bits Bits/(Pixel*Frame) : 0.057 Stream size : 5.69 GiB (75%) Writing library : x265 2.3+9-820f4327ddac44de:[Windows][GCC 6.3.0][64 bit] 10bit: KG7x [x265.ru] Default : Yes Forced : No Audio ID : 2 Format : PCM Format settings : Little / Signed Codec ID : A_PCM/INT/LIT Duration : 1 h 55 min Bit rate mode : Constant Bit rate : 2 304 kb/s Channel(s) : 2 channels Sampling rate : 48.0 kHz Frame rate : 200.000 FPS (240 SPF) Bit depth : 24 bits Stream size : 1.86 GiB (25%) Language : Japanese Default : Yes Forced : No Menu 00:00:00.000 : en:OPENING: High-energy Particle / EVALA 00:01:52.779 : en:01.カゲロウデイズ / じん 00:05:50.684 : en:02.二次元ドリームフィーバー / PolyphonicBranch 00:09:02.108 : en:03.心臓デモクラシー / みきとP 00:12:57.343 : en:MC1 00:13:32.945 : en:04.ありふれたせかいせいふく / ピノキオP 00:16:56.883 : en:05.スキキライ / HoneyWorks 00:22:20.539 : en:06.からくりピエロ / 40mp 00:25:39.538 : en:07.Weekender Girl / kz(livetune) × 八王子P 00:29:12.751 : en:08.FREELY TOMORROW / Mitchie M 00:33:18.496 : en:09.深海少女 / ゆうゆ 00:37:33.918 : en:10.ピアノ×フォルテ×スキャンダル / OSTER project 00:41:31.322 : en:11.erase or zero / クリスタルP 00:45:38.469 : en:12.glow / keeno 00:50:33.864 : en:13.Hello, Worker / KEI 00:54:35.906 : en:14.アカツキアライヴァル / Last Note 00:58:02.079 : en:15.ワンダーランドと羊の歌 / ハチ 01:03:07.796 : en:16.Tell Your World / livetune 01:07:49.711 : en:17.東京テディベア / Neru 01:11:06.774 : en:18.Last Night, Good Night(Re:Dialed) / livetune 01:18:15.703 : en:19.キャットフード / doriko 01:23:28.015 : en:MC2 01:23:37.091 : en:20.EARTH DAY / はりーP 01:27:18.412 : en:21.ゆめゆめ / DECO*27 01:31:03.637 : en:22.ODDS&ENDS / ryo(supercell) 01:38:54.340 : en:23.Sweet Devil / 八王子P 01:43:26.612 : en:24.shake it! / emon 01:47:21.947 : en:メンバー绍介 01:48:25.711 : en:25.39 / sasakure.UK × DECO*27 01:53:09.395 : en:ENDING: ネクストネスト / さつき が てんこもり

File list

Comments - 0