【vomiku】Magical Mirai 2013[BDrip][1080P60][HEVC_YUV420p10_FLAC][JPN&CHS_Sub]

Category:
Date:
2018-02-02 02:10 UTC
Submitter:
Seeders:
1
Information:
vomiku.com
Leechers:
1
File size:
7.4 GiB
Completed:
10
Info hash:
707359b74361c379a2fee33068581ba433e756f3
已经上传到迅雷离线,使用迅雷会员即可离线极速下载。 Files have been uploaded to Thunder lixian, using Thunder VIP to speed faster download. 【Video info】: Format : Matroska Format version : Version 4 / Version 2 File size : 7.36 GiB Duration : 1 h 58 min Overall bit rate mode : Variable Overall bit rate : 8 917 kb/s Encoded date : UTC 2018-01-07 00:58:43 Writing application : mkvmerge v12.0.0 ('Trust / Lust') 64bit Writing library : libebml v1.3.4 + libmatroska v1.4.5 Video ID : 1 Format : HEVC Format/Info : High Efficiency Video Coding Format profile : Main 10@L5@Main Codec ID : V_MPEGH/ISO/HEVC Duration : 1 h 58 min Bit rate : 7 013 kb/s Width : 1 920 pixels Height : 1 080 pixels Display aspect ratio : 16:9 Frame rate mode : Constant Frame rate : 59.940 (60000/1001) FPS Original frame rate : 59.940 (59940/1000) FPS Color space : YUV Chroma subsampling : 4:2:0 Bit depth : 10 bits Bits/(Pixel*Frame) : 0.056 Stream size : 5.79 GiB (79%) Writing library : x265 2.3+9-820f4327ddac44de:[Windows][GCC 6.3.0][64 bit] 10bit: KG7x [x265.ru] Default : Yes Forced : No Audio ID : 2 Format : FLAC Format/Info : Free Lossless Audio Codec Codec ID : A_FLAC Duration : 1 h 58 min Bit rate mode : Variable Bit rate : 1 904 kb/s Channel(s) : 2 channels Channel positions : Front: L R Sampling rate : 48.0 kHz Frame rate : 11.719 FPS (4096 SPF) Bit depth : 24 bits Stream size : 1.57 GiB (21%) Writing library : libFLAC 1.2.1 (UTC 2007-09-17) Language : Japanese Default : Yes Forced : No Menu 00:00:00.000 : en:Start 00:00:30.030 : en:00. Opening Music 00:02:29.749 : en:01. Sweet Devil 00:06:27.653 : en:02. 二次元ドリームフィーバー 00:09:58.664 : en:03. キャットフード 00:15:16.148 : en:MC 00:15:40.673 : en:04. からくりピエロ 00:19:05.477 : en:05. ありふれたせかいせいふく 00:22:39.357 : en:06. どうぶつ占い 00:27:28.980 : en:07. 深海少女 00:31:36.894 : en:08. Hello,Worker 00:35:35.066 : en:09. erase or zero 00:39:29.767 : en:10. ピアノ×フォルテ×スキャンダル 00:43:40.284 : en:11. スキキライ 00:48:45.122 : en:12. shake it! 00:52:40.023 : en:13. Weekend Girl 00:56:14.037 : en:14. FEELY TOMORROW 01:00:25.621 : en:15. Last Night,Good Night(Re:Dialed) 01:07:34.050 : en:16. Leia 01:11:59.314 : en:17. 東京テディベア 01:15:17.846 : en:18. アンハッピーリフレイン 01:19:21.423 : en:19. glow 01:24:16.718 : en:20. Tell Your World 01:28:44.652 : en:21. 39 01:32:55.236 : en:22. ODDS&ENDS 01:39:51.318 : en:Encore 01:41:05.826 : en:23. 1/6-out of the gravity- (encore) 01:45:59.019 : en:Members Introduce 01:47:22.602 : en:24. ゆめゆめ (encore) 01:51:59.779 : en:End 01:53:09.582 : en:End Roll

File list

Comments - 0