[neko-raws] Rokudenashi Majutsu Koushi to Akashic Records [BD][1080p][FLAC]

Category:
Date:
2017-12-24 13:03 UTC
Submitter:
Seeders:
3
Information:
Leechers:
1
File size:
18.9 GiB
Completed:
570
Info hash:
00bc0544268f447c63f40dd69733cab1ce9cbf9a
A small X-Mas gift for you. Happy Holidays everyone! Bought by me as always~ https://neko-raws.moe/ [neko-raws] Rokudenashi Majutsu Koushi to Akashic Records 12 [BD][1080p][FLAC].mkv Format : Matroska Format version : Version 4 / Version 2 File size : 1.71 GiB Duration : 23 min 40 s Overall bit rate mode : Variable Overall bit rate : 10.3 Mb/s Encoded date : UTC 2017-12-19 14:17:06 Writing application : mkvmerge v19.0.0 ('Brave Captain') 64-bit Writing library : libebml v1.3.5 + libmatroska v1.4.8 Video ID : 1 Format : AVC Format/Info : Advanced Video Codec Format profile : High 10@L5 Format settings : CABAC / 16 Ref Frames Format settings, CABAC : Yes Format settings, ReFrames : 16 frames Codec ID : V_MPEG4/ISO/AVC Duration : 23 min 40 s Bit rate : 9 586 kb/s Width : 1 920 pixels Height : 1 080 pixels Display aspect ratio : 16:9 Frame rate mode : Constant Frame rate : 23.976 (24000/1001) FPS Color space : YUV Chroma subsampling : 4:2:0 Bit depth : 10 bits Scan type : Progressive Bits/(Pixel*Frame) : 0.193 Stream size : 1.58 GiB (93%) Title : encode by neko-shi Writing library : x264 core 152 r2851 ba24899 (DJATOM's build) Encoding settings : cabac=1 / ref=16 / deblock=1:1:-1 / analyse=0x3:0x113 / me=umh / subme=10 / psy=1 / psy_rd=0.80:0.00 / mixed_ref=1 / me_range=32 / chroma_me=1 / trellis=2 / 8x8dct=1 / cqm=0 / deadzone=21,11 / fast_pskip=1 / chroma_qp_offset=-2 / threads=12 / lookahead_threads=3 / sliced_threads=0 / nr=0 / decimate=1 / interlaced=0 / bluray_compat=0 / constrained_intra=0 / bframes=16 / b_pyramid=2 / b_adapt=2 / b_bias=0 / direct=1 / weightb=1 / open_gop=0 / weightp=2 / keyint=240 / keyint_min=23 / scenecut=40 / intra_refresh=0 / rc=crf / mbtree=0 / crf=14.7000 / qcomp=0.72 / qpmin=0 / qpmax=81 / qpstep=4 / ip_ratio=1.40 / pb_ratio=1.30 / aq=3:0.80 Default : Yes Forced : No Color range : Limited Color primaries : BT.709 Transfer characteristics : BT.709 Matrix coefficients : BT.709 Audio ID : 2 Format : FLAC Format/Info : Free Lossless Audio Codec Codec ID : A_FLAC Duration : 23 min 39 s Bit rate mode : Variable Bit rate : 730 kb/s Channel(s) : 2 channels Channel positions : Front: L R Sampling rate : 48.0 kHz Frame rate : 11.719 FPS (4096 SPF) Bit depth : 16 bits Stream size : 124 MiB (7%) Title : FLAC 2.0 Writing library : libFLAC 1.3.2 (UTC 2017-01-01) Language : Japanese Default : Yes Forced : No

File list

  • [neko-raws] Rokudenashi Majutsu Koushi to Akashic Records [BD][1080p][FLAC]
    • NC
      • [neko-raws] Rokudenashi Majutsu Koushi to Akashic Records NCED [BD][1080p][FLAC].mkv (110.6 MiB)
      • [neko-raws] Rokudenashi Majutsu Koushi to Akashic Records NCOP [BD][1080p][FLAC].mkv (150.6 MiB)
    • Preview
      • [neko-raws] Rokudenashi Majutsu Koushi to Akashic Records Preview 02 [BD][1080p][FLAC].mkv (28.1 MiB)
      • [neko-raws] Rokudenashi Majutsu Koushi to Akashic Records Preview 03 [BD][1080p][FLAC].mkv (27.3 MiB)
      • [neko-raws] Rokudenashi Majutsu Koushi to Akashic Records Preview 04 [BD][1080p][FLAC].mkv (31.7 MiB)
      • [neko-raws] Rokudenashi Majutsu Koushi to Akashic Records Preview 05 [BD][1080p][FLAC].mkv (44.5 MiB)
      • [neko-raws] Rokudenashi Majutsu Koushi to Akashic Records Preview 06 [BD][1080p][FLAC].mkv (35.3 MiB)
      • [neko-raws] Rokudenashi Majutsu Koushi to Akashic Records Preview 07 [BD][1080p][FLAC].mkv (42.4 MiB)
      • [neko-raws] Rokudenashi Majutsu Koushi to Akashic Records Preview 08 [BD][1080p][FLAC].mkv (41.2 MiB)
      • [neko-raws] Rokudenashi Majutsu Koushi to Akashic Records Preview 09 [BD][1080p][FLAC].mkv (34.3 MiB)
      • [neko-raws] Rokudenashi Majutsu Koushi to Akashic Records Preview 10 [BD][1080p][FLAC].mkv (51.4 MiB)
      • [neko-raws] Rokudenashi Majutsu Koushi to Akashic Records Preview 11 [BD][1080p][FLAC].mkv (65.2 MiB)
      • [neko-raws] Rokudenashi Majutsu Koushi to Akashic Records Preview 12 [BD][1080p][FLAC].mkv (61.3 MiB)
    • [neko-raws] Rokudenashi Majutsu Koushi to Akashic Records 01 [BD][1080p][FLAC].mkv (1.2 GiB)
    • [neko-raws] Rokudenashi Majutsu Koushi to Akashic Records 02 [BD][1080p][FLAC].mkv (1.2 GiB)
    • [neko-raws] Rokudenashi Majutsu Koushi to Akashic Records 03 [BD][1080p][FLAC].mkv (1.7 GiB)
    • [neko-raws] Rokudenashi Majutsu Koushi to Akashic Records 04 [BD][1080p][FLAC].mkv (1.5 GiB)
    • [neko-raws] Rokudenashi Majutsu Koushi to Akashic Records 05 [BD][1080p][FLAC].mkv (1.5 GiB)
    • [neko-raws] Rokudenashi Majutsu Koushi to Akashic Records 06 [BD][1080p][FLAC].mkv (1.7 GiB)
    • [neko-raws] Rokudenashi Majutsu Koushi to Akashic Records 07 [BD][1080p][FLAC].mkv (1.5 GiB)
    • [neko-raws] Rokudenashi Majutsu Koushi to Akashic Records 08 [BD][1080p][FLAC].mkv (1.7 GiB)
    • [neko-raws] Rokudenashi Majutsu Koushi to Akashic Records 09 [BD][1080p][FLAC].mkv (1.7 GiB)
    • [neko-raws] Rokudenashi Majutsu Koushi to Akashic Records 10 [BD][1080p][FLAC].mkv (1.4 GiB)
    • [neko-raws] Rokudenashi Majutsu Koushi to Akashic Records 11 [BD][1080p][FLAC].mkv (1.5 GiB)
    • [neko-raws] Rokudenashi Majutsu Koushi to Akashic Records 12 [BD][1080p][FLAC].mkv (1.7 GiB)
It's nice to see the media info of the release. Thanks for sharing this.
Thanks a bunch, neko-shi! It's a Xmas miracle! Will you do Danmachi: Sword Oratoria as well?

neko-raws (uploader)

Trusted
you're welcome ;) v1touch: Maybe, I don't know yet.
Will you do Rokudenashi Majutsu Koushi to Akashic Records [Ohys-Raws] BD ???
Thanks friend! :)
@ZERO-150 are you retarded? you're commenting under [neko-raws] Rokudenashi - Ohys is just another encoder, a bad one, by the way. it's the same series
@neko-raws your profile pic, is that succubus-sensei fron Demi-chan?

neko-raws (uploader)

Trusted
Naivra: Yes. Best sensei.
![alt text](https://assets-us2.piliapp.com/s3pxy/emoji/tag/smileys-people/apple-1f619.png)![alt text](https://assets-us2.piliapp.com/s3pxy/emoji/tag/smileys-people/apple-1f619.png) Miracle in Christmas. Thankyou @neko-raws.... !
^ disgusting emoticon
^ disgusting name ever
Thanks neko-raws. Merry Christmas to all.
Thanks for this. By the way any info for "Clockwork planet" or "Isekai wa Smartphone to Tomo ni",
Compatible with [KOTEX] Roku de Nashi Majutsu Koushi to Akashic Records [BD][english subtitle scripts for Ohys-Raws].7z btw. https://nyaa.si/view/991561

Ren

User
Please seed. Will seed back.

Ren

User
Thanks seeding back now.