Bamboo.Blade.S01v2.576p-Hi10p.DVDRip.x264.DD5.1.Dual.[SRLS]

Category:
Date:
2017-10-01 04:15 UTC
Submitter:
Anonymous
Seeders:
4
Information:
No information.
Leechers:
1
File size:
12.8 GiB
Completed:
1177
Info hash:
cc3ece05699e0df95c14b83ba53a2d0da1e51a10
NOTE: This is a v2 because the English audio was out of sync for all episodes in the original torrent except 9-14. Since well over half the episodes were affected, I'm not making patches. Seems like it would be easier to just download the new files. The whole thing is less than 10 GB. My apologies for the inconvenience! ... I don't even know anything about this series. A friend mentioned they were streaming it from VRV and I was like "ok I'm gonna make a release, because...reasons?" Anyways, here it is. Yay? Nice encode by Desidis from RuTracker.org, 5.1 AC3 English audio from Exiled-Destiny, .ASS subs from Arigatou (unstyled but decent placement near the characters being translated), and retail VOBSubs from Exiled-Destiny to satisfy my compulsive completionism. This was a pain to remux. Had to recut a number of the English audio tracks from Exiled-Destiny to achieve sync, and the Arigatou subs required an arbitrary offset that doesn't even make sense, different from their release's audio which I initially tried to use to find subs offset (which itself was thoroughly obnoxious, the Japanese track failing to line up without multiple cuts. Then come to find that the arbitrary offset suitable for the subs track was universally applicable for every episode, despite being arbitrary. Explain that one!) Without further ado... Bamboo Blade, ladies and gentlemen. Affiliated Groups: SRLS, Desidis, Arigatou, Exiled-Destiny File Size:  ~488MB File Extension: .mkv Chapters Media Details Video Track: 576p-Hi10p JPDVD (Desidis) Audio Track 1 (Default): English 5.1 AC3 DVD (Exiled-Destiny) Audio Track 2: Japanese 2.0 AC3 DVD (Desidis) Subtitle Track 1 (Default): English Signs (.ASS) (Arigatou) Subtitle Track 2: English Dialogue (Character-Specific) (.ASS) (Arigatou) Subtitle Track 3: English Signs - (.SUB) (Exiled-Destiny) Subtitle Track 4: English Dialogue - (.SUB) (Exiled-Destiny) General Unique ID : 186793390773017852828333856336102873664 (0x8C8719355A21F9A4BDFD3653AC5CDA40) Complete name : Bamboo.Blade.S01E01.v2.576p-Hi10p.DVDRip.DD5.1.x264-SRLS.[3DD7F0EC].mkv Format : Matroska Format version : Version 4 / Version 2 File size : 531 MiB Duration : 24 min 21 s Overall bit rate : 3 046 kb/s Movie name : The Broom and the Ally of Justice Encoded date : UTC 2017-10-01 03:10:57 Writing application : mkvmerge v15.0.0 ('Duel with the Devil') 64-bit Writing library : libebml v1.3.5 + libmatroska v1.4.5 Video ID : 1 Format : AVC Format/Info : Advanced Video Codec Format profile : High 10@L3.2 Format settings, CABAC : Yes Format settings, ReFrames : 8 frames Codec ID : V_MPEG4/ISO/AVC Duration : 24 min 21 s Bit rate : 2 145 kb/s Width : 1 024 pixels Height : 576 pixels Display aspect ratio : 16:9 Frame rate mode : Constant Frame rate : 23.976 (24000/1001) FPS Color space : YUV Chroma subsampling : 4:2:0 Bit depth : 10 bits Scan type : Progressive Bits/(Pixel*Frame) : 0.152 Stream size : 374 MiB (70%) Title : JPDVD [Desidis] Writing library : x264 core 146 r2538 121396c Encoding settings : cabac=1 / ref=8 / deblock=1:0:0 / analyse=0x3:0x133 / me=umh / subme=10 / psy=1 / psy_rd=1.00:0.00 / mixed_ref=1 / me_range=64 / chroma_me=1 / trellis=2 / 8x8dct=1 / cqm=0 / deadzone=21,11 / fast_pskip=0 / chroma_qp_offset=-2 / threads=9 / lookahead_threads=1 / sliced_threads=0 / nr=600 / decimate=1 / interlaced=0 / bluray_compat=0 / constrained_intra=0 / bframes=8 / b_pyramid=2 / b_adapt=2 / b_bias=0 / direct=3 / weightb=1 / open_gop=0 / weightp=2 / keyint=240 / keyint_min=23 / scenecut=40 / intra_refresh=0 / rc_lookahead=60 / rc=crf / mbtree=1 / crf=12.0 / qcomp=0.60 / qpmin=0 / qpmax=81 / qpstep=4 / ip_ratio=1.40 / aq=1:1.00 Language : Japanese Default : Yes Forced : No Audio #1 ID : 2 Format : AC-3 Format/Info : Audio Coding 3 Format settings, Endianness : Big Codec ID : A_AC3 Duration : 24 min 21 s Bit rate mode : Constant Bit rate : 448 kb/s Channel(s) : 6 channels Channel positions : Front: L C R, Side: L R, LFE Sampling rate : 48.0 kHz Frame rate : 31.250 FPS (1536 spf) Bit depth : 16 bits Compression mode : Lossy Delay relative to video : 10 ms Stream size : 78.1 MiB (15%) Title : AC3 5.1 [Exiled-Destiny] Language : English Service kind : Complete Main Default : Yes Forced : No Audio #2 ID : 3 Format : AC-3 Format/Info : Audio Coding 3 Format settings, Endianness : Big Codec ID : A_AC3 Duration : 24 min 21 s Bit rate mode : Constant Bit rate : 448 kb/s Channel(s) : 2 channels Channel positions : Front: L R Sampling rate : 48.0 kHz Frame rate : 31.250 FPS (1536 spf) Bit depth : 16 bits Compression mode : Lossy Stream size : 78.0 MiB (15%) Title : AC3 2.0 [Desidis] Language : Japanese Service kind : Complete Main Default : No Forced : No Text #1 ID : 4 Format : ASS Codec ID : S_TEXT/ASS Codec ID/Info : Advanced Sub Station Alpha Duration : 23 min 6 s Bit rate : 17 b/s Count of elements : 42 Compression mode : Lossless Stream size : 2.96 KiB (0%) Title : Signs/Songs [Arigatou] Language : English Default : Yes Forced : Yes Text #2 ID : 5 Format : ASS Codec ID : S_TEXT/ASS Codec ID/Info : Advanced Sub Station Alpha Duration : 24 min 8 s Bit rate : 202 b/s Count of elements : 496 Compression mode : Lossless Stream size : 35.7 KiB (0%) Title : Full [Arigatou] Language : English Default : No Forced : No Text #3 ID : 6 Format : VobSub Muxing mode : zlib Codec ID : S_VOBSUB Codec ID/Info : Picture based subtitle format used on DVDs Duration : 23 min 6 s Bit rate : 635 b/s Count of elements : 42 Stream size : 108 KiB (0%) Title : Signs/Songs - Retail [Exiled-Destiny] Language : English Default : No Forced : No Text #4 ID : 7 Format : VobSub Muxing mode : zlib Codec ID : S_VOBSUB Codec ID/Info : Picture based subtitle format used on DVDs Duration : 24 min 8 s Bit rate : 7 570 b/s Count of elements : 473 Stream size : 1.31 MiB (0%) Title : Full - Retail [Exiled-Destiny] Language : English Default : No Forced : No Menu 00:00:00.000 : en:Chapter 1 00:00:28.000 : en:Chapter 2 00:01:57.967 : en:Chapter 3 00:12:01.333 : en:Chapter 4 00:22:19.700 : en:Chapter 5 00:23:49.633 : en:Chapter 6

File list

  • Bamboo.Blade.S01v2.576p-Hi10p.DVDRip.x264.DD5.1.Dual.[SRLS]
    • Bamboo.Blade.S01E01.v2.576p-Hi10p.DVDRip.DD5.1.x264-SRLS.[3DD7F0EC].mkv (530.7 MiB)
    • Bamboo.Blade.S01E02.v2.576p-Hi10p.DVDRip.DD5.1.x264-SRLS.[743922B0].mkv (532.0 MiB)
    • Bamboo.Blade.S01E03.v2.576p-Hi10p.DVDRip.DD5.1.x264-SRLS.[7AC43365].mkv (484.2 MiB)
    • Bamboo.Blade.S01E04.v2.576p-Hi10p.DVDRip.DD5.1.x264-SRLS.[CA6DD125].mkv (506.2 MiB)
    • Bamboo.Blade.S01E05.v2.576p-Hi10p.DVDRip.DD5.1.x264-SRLS.[AB86EA09].mkv (501.3 MiB)
    • Bamboo.Blade.S01E06.v2.576p-Hi10p.DVDRip.DD5.1.x264-SRLS.[ACC7E6E1].mkv (548.8 MiB)
    • Bamboo.Blade.S01E07.v2.576p-Hi10p.DVDRip.DD5.1.x264-SRLS.[15282916].mkv (495.0 MiB)
    • Bamboo.Blade.S01E08.v2.576p-Hi10p.DVDRip.DD5.1.x264-SRLS.[8E1EBB5E].mkv (512.8 MiB)
    • Bamboo.Blade.S01E09.576p-Hi10p.DVDRip.DD5.1.x264-SRLS.[43A7B280].mkv (473.1 MiB)
    • Bamboo.Blade.S01E10.576p-Hi10p.DVDRip.DD5.1.x264-SRLS.[79B1EA60].mkv (500.6 MiB)
    • Bamboo.Blade.S01E11.576p-Hi10p.DVDRip.DD5.1.x264-SRLS.[C0585F59].mkv (519.3 MiB)
    • Bamboo.Blade.S01E12.576p-Hi10p.DVDRip.DD5.1.x264-SRLS.[3287D202].mkv (533.5 MiB)
    • Bamboo.Blade.S01E13.576p-Hi10p.DVDRip.DD5.1.x264-SRLS.[2E808DFC].mkv (539.5 MiB)
    • Bamboo.Blade.S01E14.576p-Hi10p.DVDRip.DD5.1.x264-SRLS.[1865FA3C].mkv (502.8 MiB)
    • Bamboo.Blade.S01E15.v2.576p-Hi10p.DVDRip.DD5.1.x264-SRLS.[2750A3EF].mkv (512.0 MiB)
    • Bamboo.Blade.S01E16.v2.576p-Hi10p.DVDRip.DD5.1.x264-SRLS.[56692820].mkv (546.3 MiB)
    • Bamboo.Blade.S01E17.v2.576p-Hi10p.DVDRip.DD5.1.x264-SRLS.[BA752BDC].mkv (544.6 MiB)
    • Bamboo.Blade.S01E18.v2.576p-Hi10p.DVDRip.DD5.1.x264-SRLS.[6EA9B6BC].mkv (481.9 MiB)
    • Bamboo.Blade.S01E19.v2.576p-Hi10p.DVDRip.DD5.1.x264-SRLS.[742AD176].mkv (512.9 MiB)
    • Bamboo.Blade.S01E20.v2.576p-Hi10p.DVDRip.DD5.1.x264-SRLS.[7F462E1A].mkv (511.1 MiB)
    • Bamboo.Blade.S01E21.v2.576p-Hi10p.DVDRip.DD5.1.x264-SRLS.[3FA59BC7].mkv (449.8 MiB)
    • Bamboo.Blade.S01E22.v2.576p-Hi10p.DVDRip.DD5.1.x264-SRLS.[A86F4225].mkv (489.1 MiB)
    • Bamboo.Blade.S01E23.v2.576p-Hi10p.DVDRip.DD5.1.x264-SRLS.[89CB5D10].mkv (431.4 MiB)
    • Bamboo.Blade.S01E24.v2.576p-Hi10p.DVDRip.DD5.1.x264-SRLS.[97A59FB1].mkv (417.0 MiB)
    • Bamboo.Blade.S01E25.v2.576p-Hi10p.DVDRip.DD5.1.x264-SRLS.[93E6ECB2].mkv (485.6 MiB)
    • Bamboo.Blade.S01E26.v2.576p-Hi10p.DVDRip.DD5.1.x264-SRLS.[23CDF1F2].mkv (497.9 MiB)
Appreciate the timely batch fix.
Thanks for v2, although honestly it wasn't super out of sync. Definitely still watchable. Ep01 at least
"Definitely still watchable." Not good enough anymore for us :P
Thx, I appreciate the offset speak, offset-hell so to speak.
Thank you for this. I didn't have full episodes, so this helps a lot. This is a pretty good and funny slice of life even for current standard. Tama-chan is too cute.