(Shin-Raw)Skirt no Naka wa Kedamono Deshita 10 720p (UNC)(HEVC-HEAAC) [A358DE3E].mp4

Category:
Date:
2017-09-03 19:52 UTC
Submitter:
Seeders:
0
Information:
No information.
Leechers:
0
File size:
20.4 MiB
Completed:
218
Info hash:
ad7d67ef967b5b2eef18397a40dbf381bb784efd
(Shin-Raw)Skirt no Naka wa Kedamono Deshita 10 720p (UNC)(HEVC-HEAAC) [A358DE3E].mp4 Format : MPEG-4 Format profile : Base Media Codec ID : iso4 (iso4/hvc1/iso6) File size : 20.4 MiB Duration : 4 min 45 s Overall bit rate mode : Variable Overall bit rate : 601 kb/s Encoded date : UTC 2017-09-03 19:49:27 Tagged date : UTC 2017-09-03 19:49:27 Video ID : 1 Format : HEVC Format/Info : High Efficiency Video Coding Codec ID : hvc1 Codec ID/Info : High Efficiency Video Coding Duration : 4 min 45 s Bit rate : 431 kb/s Maximum bit rate : 2 311 kb/s Width : 1 280 pixels Height : 720 pixels Display aspect ratio : 16:9 Frame rate mode : Constant Frame rate : 23.976 (24000/1001) FPS Bits/(Pixel*Frame) : 0.019 Stream size : 14.6 MiB (72%) Encoded date : UTC 2017-09-03 19:49:27 Tagged date : UTC 2017-09-03 19:49:29 Audio ID : 2 Format : AAC Format/Info : Advanced Audio Codec Format profile : HE-AAC / LC Codec ID : 40 Duration : 4 min 45 s Bit rate mode : Variable Bit rate : 167 kb/s Maximum bit rate : 209 kb/s Channel(s) : 2 channels Channel positions : Front: L R Sampling rate : 48.0 kHz / 24.0 kHz Frame rate : 23.438 FPS (1024 SPF) Compression mode : Lossy Stream size : 5.68 MiB (28%) Encoded date : UTC 2017-09-03 19:44:36 Tagged date : UTC 2017-09-03 19:49:29

File list

  • (Shin-Raw)Skirt no Naka wa Kedamono Deshita 10 720p (UNC)(HEVC-HEAAC) [A358DE3E].mp4 (20.4 MiB)