Hatsune Miku Magical Mirai 2017 [マジカルミライ2017] - FULL CONCERT No watermark [TV-RIP][1080P]

Category:
Date:
2017-09-03 13:51 UTC
Submitter:
Seeders:
2
Information:
Leechers:
0
File size:
3.9 GiB
Completed:
2562
Info hash:
c5d80ec4dcf88cb71e733a6b1624a4dfc8f5e62d
## HATSUNE MIKU MAGICAL MIRAI 2017 ![alt text](http://magicalmirai.com/2017/images/og.jpg "MM2017") Concert date: September 2nd, 2017 Location: Makuhari Messe International Exhibition Hall 3 in Chiba, Japan Band Members: Keyboards: MEG.ME Drums: Kensuke Itou Guitar: Masaru Teramae Guitar: Takahiro Misawa Bass: Tsuguhito Konno **SETLIST HATSUNE MIKU MAGICAL MIRAI 2017 - Day 2** 1. みんなみくみくにしてあげる♪ (Minna Miku Miku ni Shite Ageru♪) - MOSAIC.WAV×ika feat. Hatsune Miku 2. ストリーミングハート (Streaming Heart) - DECO*27 feat. Hatsune Miku 3. エイリアンエイリアン (Alien Alien) - NayutalieN feat. Hatsune Miku MIKU'S INTRODUCTION 4. Singularity - keisei feat. Hatsune Miku 5. ヒビカセ (Hibikase) - GigaReol feat. Hatsune Miku 6. ツギハギスタッカート (Patchwork Staccato) - Toa feat. Hatsune Miku 7. スイートマジック (Sweet Magic) - Junky feat. Kagamine Rin 8. 脱法ロック (Law-evading Rock) - Neru feat. Kagamine Len 9. ドクター=ファンクビート (Doctor=Funk Beat) - nyanyannya feat. KAITO with MEIKO & Len 10. 忘却心中 (Lover's Suicide Oblivion) - 0-9 feat. MEIKO 11. どりーみんチュチュ (Dreaming Chuchu) - emon feat. Megurine Luka with Rin & Miku 12. りゅーりゅー (Birthday) - ryuryu feat. Hatsune Miku 13. えれくとりっく・えんじぇぅ (Electric Angel) - yasuoP feat. Hatsune Miku 14. ココロ (Kokoro) - Toraboruta feat. Kagamine Rin 15. Fire◎Flower - halyosy feat. Kagamine Len 16. いーあるふぁんくらぶ (1, 2 Fanclub) - MikitoP feat. Kagamine Rin & Kagamine Len 17. ルカルカ★ナイトフィーバー (Luka Luka★Night Fever) - samfree feat. Megurine Luka BAND MEMBER INTRODUCTION (Nyanyanyanyanyanyanya!) - daniwellP 18. 気まぐれメルシィ (Kimagure Mercy) - HachiojiP feat. Hatsune Miku 19. TODAY THE FUTURE - HarryP feat. Hatsune Miku 20. なりすましゲンガー (Doubleganger) - KulfiQ feat. Hatsune Miku & Kagamine Rin 21. shake it! - emon feat. Hatsune Miku, Kagamine Rin & Kagamine Len 22. メルト (Melt) - ryo (supercell) feat. Hatsune Miku ENCORE #1 23. 砂の惑星 (Sand Planet) - Hachi feat. Hatsune Miku 24. 39みゅーじっく! (39 Music!) - MikitoP feat. Hatsune Miku 25. Hand in Hand - livetune feat. Hatsune Miku 26. DECORATOR - livetune feat. Hatsune Miku with Rin, Len, Luka, KAITO & MEIKO ENCORE #2 27. ハジメテノオト (Hajimete no Oto) - malo feat. Hatsune Miku Day 1 changes 13. サイハテ (Saihate) - Kobayashi Onyx  feat. Hatsune Miku 14. メランコリック (Melancholic) - Junky feat. Kagamine Rin 15. 右肩の蝶 (Migikata no Chou) - NoriP feat. Kagamine Len 16. リモコン (Remote Controller) - JesusP feat. Kagamine Rin & Kagamine Len 17. ダブルラリアット (Double Lariat) - AgoanikiP feat. Megurine Luka Day 3 changes 13. 千本桜 (Senbonzakura) - KurosaP feat. Hatsune Miku 14. 右肩の蝶 (Migikata no Chou) - NoriP feat. Kagamine Len 15. 孤独の果て (Kodoku no Hate) - Hikarisyuyo feat. Kagamine Rin 16. いーあるふぁんくらぶ (1, 2 Fanclub) - MikitoP feat. Kagamine Rin & Kagamine Len 17. ダブルラリアット (Double Lariat) - AgoanikiP feat. Megurine Luka ̶D̶o̶w̶n̶l̶o̶a̶d̶i̶n̶g̶ ̶a̶n̶o̶t̶h̶e̶r̶ ̶v̶e̶r̶s̶i̶o̶n̶ ̶f̶r̶o̶m̶:̶ ̶h̶t̶t̶p̶:̶/̶/̶w̶w̶w̶.̶m̶i̶k̶u̶c̶l̶u̶b̶.̶c̶n̶/̶1̶0̶2̶4̶1̶5̶ ̶V̶e̶r̶y̶ ̶s̶o̶o̶n̶ ̶h̶e̶r̶e̶ ̶o̶n̶ ̶n̶y̶a̶a̶!̶ This version is very laggy. It's a screen record with watermarks. Max. 18FPS. Tell if you want me to share a torrent! :) File format: MP4 Duration: 02:05:00 Dimensions: 1920X1080 Frame rate: 25.000 FPS **ORIGINAL FROM MIKUCLUB.CN http://www.mikuclub.cn/102365 SPECIAL THANKS TO: Omoine Mie** ![alt text](https://s26.postimg.org/n6f1wxz7b/Magical_Mirai_2017.mp4_thumbs_2017.09.03_09.04.jpg "MM2017") Video ID : 1 Format : AVC Format/Info : Advanced Video Codec Format profile : High@L4 Format settings, CABAC : Yes Format settings, ReFrames : 2 frames Format settings, GOP : M=3, N=75 Codec ID : avc1 Codec ID/Info : Advanced Video Coding Duration : 2 h 5 min Bit rate : 4 214 kb/s Width : 1 920 pixels Height : 1 080 pixels Display aspect ratio : 16:9 Frame rate mode : Variable Frame rate : 25.000 FPS Minimum frame rate : 13.333 FPS Maximum frame rate : 125.490 FPS Color space : YUV Chroma subsampling : 4:2:0 Bit depth : 8 bits Scan type : Progressive Bits/(Pixel*Frame) : 0.081 Stream size : 3.69 GiB (94%) Audio ID : 2 Format : AAC Format/Info : Advanced Audio Codec Format profile : LC Codec ID : 40 Duration : 2 h 5 min Bit rate mode : Constant Bit rate : 256 kb/s Channel(s) : 2 channels Channel positions : Front: L R Sampling rate : 48.0 kHz Frame rate : 46.875 FPS (1024 spf) Compression mode : Lossy Stream size : 229 MiB (6%) Default : Yes Alternate group : 1 ̶O̶N̶L̶I̶N̶E̶ ̶F̶R̶O̶M̶ ̶Y̶O̶U̶T̶U̶B̶E̶ ̶h̶t̶t̶p̶s̶:̶/̶/̶w̶w̶w̶.̶y̶o̶u̶t̶u̶b̶e̶.̶c̶o̶m̶/̶w̶a̶t̶c̶h̶?̶v̶=̶e̶t̶6̶y̶O̶i̶7̶T̶1̶u̶Y̶ Video has been removed but there are many other sources! ## **PLEASE BUY THE BLURAY AND DVD PACKAGES OF THE CONCERT** > 3 options: Regular, Limited and 10th Anniversary Commemorative Edition. Release date: JANUARY 10TH, 2018 AmiAmi Exclusive Bonus: Magical Mirai 2017 original record-shaped coaster http://slist.amiami.com/top/search/list?s_keywords=magical+mirai+2017&submit=Search&pagemax=40 CDJapan Exclusive Bonus: Magical Mirai 5th Anniversary rubber band http://www.cdjapan.co.jp/searches?term.media_format=&q=%E3%83%9E%E3%82%B8%E3%82%AB%E3%83%AB%E3%83%9F%E3%83%A9%E3%82%A42017 Amazon Japan Exclusive Bonus: Magical Mirai 5th Anniversary Memorial Calendar https://www.amazon.co.jp/s/ref=nb_sb_noss?__mk_ja_JP=%E3%82%AB%E3%82%BF%E3%82%AB%E3%83%8A&url=search-alias%3Ddvd&field-keywords=%E3%83%9E%E3%82%B8%E3%82%AB%E3%83%AB%E3%83%9F%E3%83%A9%E3%82%A42017 # **[CHECK OUT MAGICAL MIRAI 2018 CONCERT!](1071910)** [![Loading...39%](https://pbs.twimg.com/media/DIyqebTUEAA6dLm.jpg)](http://magicalmirai.com/2018/)

File list

  • Magical Mirai 2017.mp4 (3.9 GiB)
Thank you soooooo much.
in 2018 I'll definitely be there for sure! XD
ฉันชอบมาก ๆเลย
Can you upload the video to Mega?
Thanks dude, waiting for the better quality upload, you gave us hapinnes :D

mikuno (uploader)

User
https://mega.nz/#F!Y6hESAxD!usWFHD8-avD0Pq_IYtpr_A Password: mikunolive_MM2017
Thank you so much for the Mega upload :D
thanks bro, I have a question this post is updated once the other days of the concert are available?
The video and audio seem to be falling out of sync. Am I the only one who experience this?