Centaur no Nayami - 02 [720p] [JPN-EN-DUB]

Category:
Date:
2017-08-12 21:53 UTC
Submitter:
Seeders:
1
Information:
No information.
Leechers:
0
File size:
455.9 MiB
Completed:
11
Info hash:
051a38605403e0807e9502f7c7401d0ee7527fa3
JAP Dub ENG Funimation Dub Sub Erai-Raws General Format : Matroska Format version : Version 4 / Version 2 File size : 456 MiB Duration : 23 min 38 s Overall bit rate : 2 697 kb/s Encoded date : UTC 2017-08-12 21:50:03 Writing application : mkvmerge v13.0.0 ('The Juggler') 64bit Writing library : libebml v1.3.4 + libmatroska v1.4.5 Video ID : 1 Format : AVC Format/Info : Advanced Video Codec Format profile : High@L4 Format settings, CABAC : Yes Format settings, RefFrames : 6 frames Codec ID : V_MPEG4/ISO/AVC Duration : 23 min 38 s Bit rate : 2 311 kb/s Width : 1 280 pixels Height : 720 pixels Display aspect ratio : 16:9 Frame rate mode : Constant Frame rate : 23.976 (24000/1001) FPS Color space : YUV Chroma subsampling : 4:2:0 Bit depth : 8 bits Scan type : Progressive Bits/(Pixel*Frame) : 0.105 Stream size : 391 MiB (86%) Writing library : x264 core 142 Encoding settings : cabac=1 / ref=6 / deblock=1:1:1 / analyse=0x3:0x113 / me=umh / subme=8 / psy=1 / psy_rd=0.40:0.00 / mixed_ref=1 / me_range=16 / chroma_me=1 / trellis=1 / 8x8dct=1 / cqm=0 / deadzone=21,11 / fast_pskip=1 / chroma_qp_offset=-2 / threads=10 / lookahead_threads=1 / sliced_threads=0 / nr=0 / decimate=1 / interlaced=0 / bluray_compat=0 / constrained_intra=0 / bframes=3 / b_pyramid=2 / b_adapt=2 / b_bias=0 / direct=3 / weightb=1 / open_gop=0 / weightp=2 / keyint=48 / keyint_min=24 / scenecut=40 / intra_refresh=0 / rc_lookahead=48 / rc=crf / mbtree=1 / crf=15.0 / qcomp=0.60 / qpmin=0 / qpmax=69 / qpstep=4 / vbv_maxrate=4000 / vbv_bufsize=6000 / crf_max=0.0 / nal_hrd=none / filler=0 / ip_ratio=1.40 / aq=1:0.60 Default : Yes Forced : Yes Audio #1 ID : 2 Format : AAC Format/Info : Advanced Audio Codec Format profile : LC Codec ID : A_AAC Duration : 23 min 38 s Bit rate : 128 kb/s Channel(s) : 2 channels Channel positions : Front: L R Sampling rate : 44.1 kHz Frame rate : 43.066 FPS (1024 SPF) Compression mode : Lossy Delay relative to video : -83 ms Stream size : 21.6 MiB (5%) Title : JPN Language : Japanese Default : Yes Forced : Yes Audio #2 ID : 11 Format : AAC Format/Info : Advanced Audio Codec Format profile : LC Codec ID : A_AAC Duration : 23 min 33 s Bit rate : 253 kb/s Channel(s) : 2 channels Channel positions : Front: L R Sampling rate : 48.0 kHz Frame rate : 46.875 FPS (1024 SPF) Compression mode : Lossy Delay relative to video : 2 s 417 ms Stream size : 42.7 MiB (9%) Title : ENG Language : English Default : No Forced : No Text #1 ID : 3 Format : ASS Codec ID : S_TEXT/ASS Codec ID/Info : Advanced Sub Station Alpha Duration : 22 min 0 s Bit rate : 151 b/s Count of elements : 372 Compression mode : Lossless Stream size : 24.5 KiB (0%) Title : ENG Language : English Default : Yes Forced : Yes Text #2 ID : 4 Format : ASS Codec ID : S_TEXT/ASS Codec ID/Info : Advanced Sub Station Alpha Duration : 22 min 0 s Bit rate : 184 b/s Count of elements : 372 Compression mode : Lossless Stream size : 29.8 KiB (0%) Title : ARA Language : Arabic Default : No Forced : No Text #3 ID : 5 Format : ASS Codec ID : S_TEXT/ASS Codec ID/Info : Advanced Sub Station Alpha Duration : 20 min 20 s Bit rate : 168 b/s Count of elements : 407 Compression mode : Lossless Stream size : 25.1 KiB (0%) Title : GER Language : German Default : No Forced : No Text #4 ID : 6 Format : ASS Codec ID : S_TEXT/ASS Codec ID/Info : Advanced Sub Station Alpha Duration : 22 min 0 s Bit rate : 153 b/s Count of elements : 367 Compression mode : Lossless Stream size : 24.7 KiB (0%) Title : SPA Language : Spanish Default : No Forced : No Text #5 ID : 7 Format : ASS Codec ID : S_TEXT/ASS Codec ID/Info : Advanced Sub Station Alpha Duration : 22 min 0 s Bit rate : 153 b/s Count of elements : 367 Compression mode : Lossless Stream size : 24.7 KiB (0%) Title : SPA Language : Spanish Default : No Forced : No Text #6 ID : 8 Format : ASS Codec ID : S_TEXT/ASS Codec ID/Info : Advanced Sub Station Alpha Duration : 22 min 0 s Bit rate : 147 b/s Count of elements : 339 Compression mode : Lossless Stream size : 23.8 KiB (0%) Title : FRE Language : French Default : No Forced : No Text #7 ID : 9 Format : ASS Codec ID : S_TEXT/ASS Codec ID/Info : Advanced Sub Station Alpha Duration : 22 min 0 s Bit rate : 157 b/s Count of elements : 368 Compression mode : Lossless Stream size : 25.4 KiB (0%) Title : ITA Language : Italian Default : No Forced : No Text #8 ID : 10 Format : ASS Codec ID : S_TEXT/ASS Codec ID/Info : Advanced Sub Station Alpha Duration : 22 min 0 s Bit rate : 153 b/s Count of elements : 371 Compression mode : Lossless Stream size : 24.7 KiB (0%) Title : POR Language : Portuguese Default : No Forced : No

File list

  • Centaur no Nayami - 02 [720p] [JPN-EN-DUB].mkv (455.9 MiB)

Comments - 0