[Kymophobia]_Starship_Troopers_Invasion_2012_[BD_1080_Multi_Audio]_[E2F1B20C]

Category:
Date:
2017-07-30 11:15 UTC
Submitter:
Seeders:
0
Information:
www.hosumagidenseyler.com
Leechers:
0
File size:
9.0 GiB
Completed:
211
Info hash:
a437287cb8b655e2f5944b2c00268664917c2c86
I'm not an encoder, nor a fansubber. Just trying to RIP what I got... Ripped from BD50. Seed after me or this will die in no time... General Unique ID : 143131889030461182294480494399943542833 (0x6BAE32F8BEB8DCFAE0321DAF48CB0831) Complete name : I:\ToADB\[Kymophobia]_Starship_Troopers_Invasion_2012_1080_[Multi_Audio]_[E2F1B20C].mkv Format : Matroska Format version : Version 4 / Version 2 File size : 8.96 GiB Duration : 1 h 28 min Overall bit rate : 14.5 Mb/s Encoded date : UTC 2017-07-29T20:13:09Z Writing application : HandBrake 1.0.7 2017040900 Writing library : Lavf57.7.2 Video ID : 1 Format : AVC Format/Info : Advanced Video Codec Format profile : High@L4.1 Format settings, CABAC : Yes Format settings, ReFrames : 4 frames Codec ID : V_MPEG4/ISO/AVC Duration : 1 h 28 min Bit rate : 11.0 Mb/s Width : 1 920 pixels Height : 1 080 pixels Display aspect ratio : 16:9 Frame rate mode : Constant Frame rate : 23.976 (24000/1001) FPS Color space : YUV Chroma subsampling : 4:2:0 Bit depth : 8 bits Scan type : Progressive Bits/(Pixel*Frame) : 0.220 Stream size : 6.79 GiB (76%) Writing library : x264 core 148 r2708 86b7198 Encoding settings : cabac=1 / ref=4 / deblock=1:1:1 / analyse=0x3:0x133 / me=umh / subme=10 / psy=1 / psy_rd=0.40:0.00 / mixed_ref=1 / me_range=24 / chroma_me=1 / trellis=2 / 8x8dct=1 / cqm=0 / deadzone=21,11 / fast_pskip=1 / chroma_qp_offset=-2 / threads=6 / lookahead_threads=1 / sliced_threads=0 / nr=0 / decimate=1 / interlaced=0 / bluray_compat=0 / constrained_intra=0 / bframes=5 / b_pyramid=2 / b_adapt=2 / b_bias=0 / direct=3 / weightb=1 / open_gop=0 / weightp=2 / keyint=240 / keyint_min=24 / scenecut=40 / intra_refresh=0 / rc_lookahead=60 / rc=crf / mbtree=1 / crf=18.0 / qcomp=0.60 / qpmin=0 / qpmax=69 / qpstep=4 / vbv_maxrate=62500 / vbv_bufsize=78125 / crf_max=0.0 / nal_hrd=none / filler=0 / ip_ratio=1.40 / aq=1:0.60 Default : Yes Forced : No Color range : Limited Color primaries : BT.709 Transfer characteristics : BT.709 Matrix coefficients : BT.709 Audio #1 ID : 2 Format : DTS Format/Info : Digital Theater Systems Mode : 16 Format settings, Endianness : Big Codec ID : A_DTS Duration : 1 h 28 min Bit rate mode : Constant Bit rate : 1 509 kb/s Channel(s) : 6 channels Channel positions : Front: L C R, Side: L R, LFE Sampling rate : 48.0 kHz Frame rate : 93.750 FPS (512 spf) Bit depth : 16 bits Compression mode : Lossy Delay relative to video : 11 ms Stream size : 959 MiB (10%) Title : English 5.1 DTS Language : English Default : Yes Forced : No Audio #2 ID : 3 Format : DTS Format/Info : Digital Theater Systems Mode : 16 Format settings, Endianness : Big Codec ID : A_DTS Duration : 1 h 28 min Bit rate mode : Constant Bit rate : 1 509 kb/s Channel(s) : 6 channels Channel positions : Front: L C R, Side: L R, LFE Sampling rate : 48.0 kHz Frame rate : 93.750 FPS (512 spf) Bit depth : 24 bits Compression mode : Lossy Stream size : 959 MiB (10%) Title : Japanese 5.1 DTS Language : Japanese Default : No Forced : No Audio #3 ID : 4 Format : AC-3 Format/Info : Audio Coding 3 Mode : Dolby Digital Format settings, Endianness : Big Codec ID : A_AC3 Duration : 1 h 28 min Bit rate mode : Constant Bit rate : 192 kb/s Channel(s) : 2 channels Channel positions : Front: L R Sampling rate : 48.0 kHz Frame rate : 31.250 FPS (1536 spf) Bit depth : 16 bits Compression mode : Lossy Delay relative to video : 32 ms Stream size : 122 MiB (1%) Title : Japanese Stereo 2.0 AC3 Language : Japanese Service kind : Complete Main Default : No Forced : No Text #1 ID : 5 Format : PGS Codec ID : S_HDMV/PGS Codec ID/Info : Picture based subtitle format used on BDs/HD-DVDs Language : English Default : No Forced : No Text #2 ID : 6 Format : PGS Codec ID : S_HDMV/PGS Codec ID/Info : Picture based subtitle format used on BDs/HD-DVDs Language : Japanese Default : No Forced : No Text #3 ID : 7 Format : PGS Codec ID : S_HDMV/PGS Codec ID/Info : Picture based subtitle format used on BDs/HD-DVDs Language : Japanese Default : No Forced : No Menu 00:00:00.000 : :Chapter 1 00:06:01.611 : :Chapter 2 00:10:44.185 : :Chapter 3 00:16:59.310 : :Chapter 4 00:20:34.483 : :Chapter 5 00:26:48.440 : :Chapter 6 00:32:48.133 : :Chapter 7 00:39:01.798 : :Chapter 8 00:44:34.422 : :Chapter 9 00:51:01.517 : :Chapter 10 00:56:55.621 : :Chapter 11 01:00:33.755 : :Chapter 12 01:04:48.593 : :Chapter 13 01:08:09.168 : :Chapter 14 01:13:16.225 : :Chapter 15 01:18:14.190 : :Chapter 16

File list

  • [Kymophobia]_Starship_Troopers_Invasion_2012_[BD_1080_Multi_Audio]_[E2F1B20C].mkv (9.0 GiB)

kymophobia (uploader)

User
This is a personal encode and I just uploaded 2 gigs and 4 seeders already? Wow... fake uploaders in a public, no dl/ul counting site. Guys, you're really pathetic...
Statistics on the website is based on the torrent file. Anyone using the magnet link will bypass these statistics, making them unreliable.Those in torrent client is based on DHT, and can also be partial.
Your first torrent, nice :)

kymophobia (uploader)

User
@anime90 Seeding for now but I'll be off in a week tops.

kymophobia (uploader)

User
Ok ok seeding again...