八重の桜 / Yae no Sakura (2013) [TV 720p x264 AAC]

Category:
Date:
2017-07-27 13:53 UTC
Submitter:
Anonymous
Seeders:
3
Information:
No information.
Leechers:
2
File size:
42.7 GiB
Completed:
798
Info hash:
b898a51c6b324f0d06922350dbaf1f3f7d435234
#### media info ``` General Complete name : Z:\Yae no Sakura\Yae no Sakura Ep01 (1280x720 x264-AAC).mp4 Format : MPEG-4 Format profile : Base Media Codec ID : isom File size : 1.72 GiB Duration : 1h 13mn Overall bit rate mode : Variable Overall bit rate : 3 333 Kbps Encoded date : UTC 2013-01-07 13:49:28 Tagged date : UTC 2013-01-07 13:49:28 Comment : Encoded by くずおれる  Video ID : 1 Format : AVC Format/Info : Advanced Video Codec Format profile : High@L4.1 Format settings, CABAC : Yes Format settings, ReFrames : 5 frames Codec ID : avc1 Codec ID/Info : Advanced Video Coding Duration : 1h 13mn Bit rate : 3 140 Kbps Maximum bit rate : 28.1 Mbps Width : 1 280 pixels Height : 720 pixels Display aspect ratio : 16:9 Frame rate mode : Constant Frame rate : 29.970 fps Color space : YUV Chroma subsampling : 4:2:0 Bit depth : 8 bits Scan type : Progressive Bits/(Pixel*Frame) : 0.114 Stream size : 1.62 GiB (94%) Title : Imported with GPAC 0.4.6-DEV (internal rev. 5) Writing library : x264 core 120 r2120 0c7dab9 Encoding settings : cabac=1 / ref=5 / deblock=1:-1:-1 / analyse=0x3:0x113 / me=umh / subme=9 / psy=1 / psy_rd=1.00:0.15 / mixed_ref=1 / me_range=32 / chroma_me=1 / trellis=2 / 8x8dct=1 / cqm=0 / deadzone=21,11 / fast_pskip=1 / chroma_qp_offset=-3 / threads=6 / sliced_threads=0 / nr=0 / decimate=1 / interlaced=0 / bluray_compat=0 / constrained_intra=0 / bframes=3 / b_pyramid=2 / b_adapt=2 / b_bias=0 / direct=3 / weightb=1 / open_gop=0 / weightp=2 / keyint=250 / keyint_min=25 / scenecut=40 / intra_refresh=0 / rc_lookahead=60 / rc=crf / mbtree=1 / crf=19.0 / qcomp=0.60 / qpmin=0 / qpmax=69 / qpstep=4 / ip_ratio=1.40 / aq=1:1.00 Encoded date : UTC 2013-01-07 13:49:28 Tagged date : UTC 2013-01-07 13:50:23 Audio ID : 2 Format : AAC Format/Info : Advanced Audio Codec Format profile : LC Codec ID : 67 Duration : 1h 13mn Bit rate mode : Variable Bit rate : 192 Kbps Maximum bit rate : 195 Kbps Channel(s) : 2 channels Channel positions : Front: L R Sampling rate : 48.0 KHz Compression mode : Lossy Stream size : 99.8 MiB (6%) Title : Imported with GPAC 0.4.6-DEV (internal rev. 5) Language : Japanese Encoded date : UTC 2013-01-07 13:50:18 Tagged date : UTC 2013-01-07 13:50:23 ```

File list

  • Yae no Sakura
    • Yae no Sakura Ep01 (1280x720 x264-AAC).mp4 (1.7 GiB)
    • Yae no Sakura Ep02 (1280x720 x264-AAC).mp4 (842.7 MiB)
    • Yae no Sakura Ep03 (1280x720 x264-AAC).mp4 (863.2 MiB)
    • Yae no Sakura Ep04 (1280x720 x264-AAC).mp4 (902.4 MiB)
    • Yae no Sakura Ep05 (1280x720 x264-AAC).mp4 (972.4 MiB)
    • Yae no Sakura Ep06 (1280x720 x264-AAC).mp4 (875.0 MiB)
    • Yae no Sakura Ep07 (1280x720 x264-AAC).mp4 (897.1 MiB)
    • Yae no Sakura Ep08 (1280x720 x264-AAC).mp4 (932.3 MiB)
    • Yae no Sakura Ep09 (1280x720 x264-AAC).mp4 (840.8 MiB)
    • Yae no Sakura Ep10 (1280x720 x264-AAC).mp4 (786.4 MiB)
    • Yae no Sakura Ep11 (1280x720 x264-AAC).mp4 (859.0 MiB)
    • Yae no Sakura Ep12 (1280x720 x264-AAC).mp4 (984.9 MiB)
    • Yae no Sakura Ep13 (1280x720 x264-AAC).mp4 (866.9 MiB)
    • Yae no Sakura Ep14 (1280x720 x264-AAC).mp4 (866.1 MiB)
    • Yae no Sakura Ep15 (1280x720 x264-AAC).mp4 (893.8 MiB)
    • Yae no Sakura Ep16 (1280x720 x264-AAC).mp4 (818.3 MiB)
    • Yae no Sakura Ep17 (1280x720 x264-AAC).mp4 (794.4 MiB)
    • Yae no Sakura Ep18 (1280x720 x264-AAC).mp4 (952.0 MiB)
    • Yae no Sakura Ep19 (1280x720 x264-AAC).mp4 (767.7 MiB)
    • Yae no Sakura Ep20 (1280x720 x264-AAC).mp4 (883.0 MiB)
    • Yae no Sakura Ep21 (1280x720 x264-AAC).mp4 (894.1 MiB)
    • Yae no Sakura Ep22 (1280x720 x264-AAC).mp4 (824.7 MiB)
    • Yae no Sakura Ep23 (1280x720 x264-AAC).mp4 (864.8 MiB)
    • Yae no Sakura Ep24 (1280x720 x264-AAC).mp4 (1006.0 MiB)
    • Yae no Sakura Ep25 (1280x720 x264-AAC).mp4 (905.6 MiB)
    • Yae no Sakura Ep26 (1280x720 x264-AAC).mp4 (1.0 GiB)
    • Yae no Sakura Ep27 (1280x720 x264-AAC).mp4 (1.0 GiB)
    • Yae no Sakura Ep28 (1280x720 x264-AAC).mp4 (933.7 MiB)
    • Yae no Sakura Ep29 (1280x720 x264-AAC).mp4 (826.0 MiB)
    • Yae no Sakura Ep30 (1280x720 x264-AAC).mp4 (798.0 MiB)
    • Yae no Sakura Ep31 (1280x720 x264-AAC).mp4 (873.3 MiB)
    • Yae no Sakura Ep32 (1280x720 x264-AAC).mp4 (840.5 MiB)
    • Yae no Sakura Ep33 (1280x720 x264-AAC).mp4 (865.0 MiB)
    • Yae no Sakura Ep34 (1280x720 x264-AAC).mp4 (786.2 MiB)
    • Yae no Sakura Ep35 (1280x720 x264-AAC).mp4 (837.0 MiB)
    • Yae no Sakura Ep36 (1280x720 x264-AAC).mp4 (750.5 MiB)
    • Yae no Sakura Ep37 (1280x720 x264-AAC).mp4 (761.0 MiB)
    • Yae no Sakura Ep38 (1280x720 x264-AAC).mp4 (863.6 MiB)
    • Yae no Sakura Ep39 (1280x720 x264-AAC).mp4 (772.1 MiB)
    • Yae no Sakura Ep40 (1280x720 x264-AAC).mp4 (753.1 MiB)
    • Yae no Sakura Ep41 (1280x720 x264-AAC).mp4 (749.5 MiB)
    • Yae no Sakura Ep42 (1280x720 x264-AAC).mp4 (831.1 MiB)
    • Yae no Sakura Ep43 (1280x720 x264-AAC).mp4 (786.7 MiB)
    • Yae no Sakura Ep44 (1280x720 x264-AAC).mp4 (765.7 MiB)
    • Yae no Sakura Ep45 (1280x720 x264-AAC).mp4 (724.6 MiB)
    • Yae no Sakura Ep46 (1280x720 x264-AAC).mp4 (785.4 MiB)
    • Yae no Sakura Ep47 (1280x720 x264-AAC).mp4 (782.3 MiB)
    • Yae no Sakura Ep48 (1280x720 x264-AAC).mp4 (808.1 MiB)
    • Yae no Sakura Ep49 (1280x720 x264-AAC).mp4 (821.3 MiB)
    • Yae no Sakura Ep50End (1280x720 x264-AAC).mp4 (1.1 GiB)
    • Yae no Sakura en_subs.zip (601.3 KiB)