earthmind - ANOTHER HEAVEN (Fate/stay night Réalta Nua - Heaven's FEEL route OP) [English subbed + romaji]

Category:
Date:
2017-07-22 19:04 UTC
Submitter:
Seeders:
0
Information:
Leechers:
0
File size:
64.3 MiB
Completed:
292
Info hash:
7a94a9291eae73f047a10eee83fdfaaabbfc1d0c
Raw source: Forgot , probably from some copy pasta meetup. Subtitles based on translation by aznbeer and ExertFlareSolace MediaInfo General Unique ID : 249644720995389124421730263206603577990 (0xBBCFD30968BBAA2AA6D2BC29E818DA86) Complete name : earthmind - ANOTHER HEAVEN.mkv Format : Matroska Format version : Version 4 / Version 2 File size : 64.3 MiB Duration : 2 min 5 s Overall bit rate : 4 287 kb/s Movie name : earthmind - ANOTHER HEAVEN Encoded date : UTC 2017-07-22 18:39:04 Writing application : mkvmerge v9.9.0 ('Pick Up') 32bit Writing library : libebml v1.3.4 + libmatroska v1.4.5 Video ID : 2 Format : AVC Format/Info : Advanced Video Codec Format profile : High@L4.2 Format settings, CABAC : Yes Format settings, ReFrames : 3 frames Codec ID : V_MPEG4/ISO/AVC Duration : 2 min 5 s Bit rate : 4 160 kb/s Width : 1 920 pixels Height : 1 080 pixels Display aspect ratio : 16:9 Frame rate mode : Constant Frame rate : 60.000 FPS Color space : YUV Chroma subsampling : 4:2:0 Bit depth : 8 bits Scan type : Progressive Bits/(Pixel*Frame) : 0.033 Stream size : 62.3 MiB (97%) Language : Japanese Default : Yes Forced : No Color range : Limited Color primaries : BT.709 Transfer characteristics : BT.709 Matrix coefficients : BT.709 Audio ID : 3 Format : AAC Format/Info : Advanced Audio Codec Format profile : LC Codec ID : A_AAC Duration : 2 min 5 s Bit rate : 126 kb/s Channel(s) : 2 channels Channel positions : Front: L R Sampling rate : 44.1 kHz Frame rate : 43.066 FPS (1024 spf) Compression mode : Lossy Stream size : 1.88 MiB (3%) Language : Japanese Default : Yes Forced : No Text ID : 1 Format : ASS Codec ID : S_TEXT/ASS Codec ID/Info : Advanced Sub Station Alpha Duration : 1 min 18 s Bit rate : 160 b/s Count of elements : 26 Compression mode : Lossless Stream size : 1.53 KiB (0%) Title : RamenSub Language : English Default : Yes Forced : No

File list

  • earthmind - ANOTHER HEAVEN.mkv (64.3 MiB)
okay, seriously, where is the raw from? It doesn't look like PS-vita rip.

RamenSub (uploader)

User
I sometimes have a meetup with friends or clubs and we'll check each others HDD and copy stuffs that we want. Most probably I got it through such events. But now I think my source is probably a re-encode of [this](https://goo.gl/IdvbE7)
well that's a shame because that is definitely an upscale and the original is definitely not 60fps.
hello where I can download this Original OP or the source to download as the user says frozenkex could you pass the link where you got it please Ramensub?
the original must have a size of 200-300 MB or more and 23.976p not 60.000p

RamenSub (uploader)

User
As I've said, I don't remember where I got the RAW from. The closest guest is it's a reencode of https://drive.google.com/file/d/0BwyBrWY6G7tZVmpROVhXU21qbUE/view