(Shin-Raw)Skirt no Naka wa Kedamono Deshita 01 720p (HEVC-HEAAC) [C3202208].mp4

Category:
Date:
2017-07-03 03:54 UTC
Submitter:
Seeders:
0
Information:
No information.
Leechers:
0
File size:
33.4 MiB
Completed:
121
Info hash:
8eadf5ebd2f5f94969b4154d3197272992d8d453
MEDIAINFO (Shin-Raw)Skirt no Naka wa Kedamono Deshita 01 720p (MX)(HEVC-HEAAC) [C3202208].mp4 Format : MPEG-4 Format profile : Base Media Codec ID : iso4 (iso4/hvc1/iso6) File size : 33.4 MiB Duration : 3 min 45 s Overall bit rate mode : Variable Overall bit rate : 1 244 kb/s Encoded date : UTC 2017-07-03 03:41:16 Tagged date : UTC 2017-07-03 03:41:16 Video ID : 1 Format : HEVC Format/Info : High Efficiency Video Coding Format profile : Main@L3.1@Main Codec ID : hvc1 Codec ID/Info : High Efficiency Video Coding Duration : 3 min 44 s Bit rate : 1 064 kb/s Maximum bit rate : 6 617 kb/s Width : 1 280 pixels Height : 720 pixels Display aspect ratio : 16:9 Frame rate mode : Constant Frame rate : 29.970 (30000/1001) FPS Color space : YUV Chroma subsampling : 4:2:0 Bit depth : 8 bits Bits/(Pixel*Frame) : 0.039 Stream size : 28.6 MiB (86%) Writing library : x265 2.4+6-fd01abfc7898:[Windows][GCC 6.3.0][64 bit] 8bit+10bit+12bit Encoding settings : cpuid=1105919 / frame-threads=3 / numa-pools=8 / wpp / no-pmode / no-pme / no-psnr / no-ssim / log-level=2 / input-csp=1 / input-res=1280x720 / interlace=0 / total-frames=6743 / level-idc=0 / high-tier=1 / uhd-bd=0 / ref=3 / no-allow-non-conformance / no-repeat-headers / annexb / no-aud / no-hrd / info / hash=0 / no-temporal-layers / open-gop / min-keyint=25 / keyint=250 / bframes=4 / b-adapt=2 / b-pyramid / bframe-bias=0 / rc-lookahead=20 / lookahead-slices=4 / scenecut=40 / no-intra-refresh / ctu=64 / min-cu-size=8 / no-rect / no-amp / max-tu-size=32 / tu-inter-depth=1 / tu-intra-depth=1 / limit-tu=0 / rdoq-level=0 / dynamic-rd=0.00 / no-ssim-rd / signhide / no-tskip / nr-intra=0 / nr-inter=0 / no-constrained-intra / strong-intra-smoothing / max-merge=2 / limit-refs=3 / no-limit-modes / me=1 / subme=2 / merange=57 / temporal-mvp / weightp / no-weightb / no-analyze-src-pics / deblock=0:0 / sao / no-sao-non-deblock / rd=3 / no-early-skip / rskip / no-fast-intra / no-tskip-fast / no-cu-lossless / no-b-intra / rdpenalty=0 / psy-rd=0.00 / psy-rdoq=0.00 / no-rd-refine / analysis-mode=0 / no-lossless / cbqpoffs=0 / crqpoffs=0 / rc=crf / crf=16.0 / qcomp=0.60 / qpstep=4 / stats-write=0 / stats-read=0 / ipratio=1.40 / pbratio=1.30 / aq-mode=1 / aq-strength=0.00 / cutree / zone-count=0 / no-strict-cbr / qg-size=32 / no-rc-grain / qpmax=69 / qpmin=0 / sar=1 / overscan=0 / videoformat=5 / range=0 / colorprim=2 / transfer=2 / colormatrix=2 / chromaloc=0 / display-window=0 / max-cll=0,0 / min-luma=0 / max-luma=255 / log2-max-poc-lsb=8 / vui-timing-info / vui-hrd-info / slices=1 / opt-qp-pps / opt-ref-list-length-pps / no-multi-pass-opt-rps / scenecut-bias=0.05 / no-opt-cu-delta-qp / no-aq-motion / no-hdr / no-hdr-opt / no-dhdr10-opt / refine-level=5 / no-limit-sao Encoded date : UTC 2017-07-03 03:41:16 Tagged date : UTC 2017-07-03 03:41:17 Audio ID : 2 Format : AAC Format/Info : Advanced Audio Codec Format profile : HE-AAC / LC Codec ID : 40 Duration : 3 min 45 s Bit rate mode : Variable Bit rate : 177 kb/s Maximum bit rate : 210 kb/s Channel(s) : 2 channels Channel positions : Front: L R Sampling rate : 48.0 kHz / 24.0 kHz Frame rate : 23.438 FPS (1024 SPF) Compression mode : Lossy Stream size : 4.74 MiB (14%) Encoded date : UTC 2017-07-03 03:31:35 Tagged date : UTC 2017-07-03 03:41:17[/spoiler]

File list

  • (Shin-Raw)Skirt no Naka wa Kedamono Deshita 01 720p (HEVC-HEAAC) [C3202208].mp4 (33.4 MiB)

shinsu (uploader)

User
Censored version.
where is the uncensored version? seems like no one actually made the move on recording it

shinsu (uploader)

User
01 Unc https://nyaa.si/view/937293 02 Unc https://nyaa.si/view/937291