[BayiSubs] Seven Princesses {Qigongzhu} PV (WEB 1280x720 x264 AAC)

Category:
Date:
2017-05-01 10:37 UTC
Submitter:
Seeders:
0
Information:
No information.
Leechers:
0
File size:
61.3 MiB
Completed:
9
Info hash:
ddad1241ee2e1598ed491e7ffe60489472a768bc
2015 Tencent Comics PV Competition Entry Subber(s): GFearJ General Complete name : \[BayiSubs\] Seven Princesses {Qigongzhu} PV (WEB 1280x720 x264 AAC).mp4 Format : MPEG-4 Format profile : Base Media / Version 2 Codec ID : mp42 (isom/mp42) File size : 61.3 MiB Duration : 6 min 5 s Overall bit rate mode : Variable Overall bit rate : 1 407 kb/s Encoded date : UTC 2017-03-29 15:37:29 Tagged date : UTC 2017-03-29 15:37:29 gsst : 0 gstd : 365760 Video ID : 1 Format : AVC Format/Info : Advanced Video Codec Format profile : High@L3.1 Format settings, CABAC : Yes Format settings, ReFrames : 1 frame Codec ID : avc1 Codec ID/Info : Advanced Video Coding Duration : 6 min 5 s Bit rate : 1 212 kb/s Maximum bit rate : 3 380 kb/s Width : 1 280 pixels Height : 720 pixels Display aspect ratio : 16:9 Frame rate mode : Constant Frame rate : 23.976 (24000/1001) FPS Color space : YUV Chroma subsampling : 4:2:0 Bit depth : 8 bits Scan type : Progressive Bits/(Pixel\*Frame) : 0.055 Stream size : 52.9 MiB (86%) Tagged date : UTC 2017-03-29 15:37:32 Color range : Limited Color primaries : BT.709 Transfer characteristics : BT.709 Matrix coefficients : BT.709 Audio ID : 2 Format : AAC Format/Info : Advanced Audio Codec Format profile : LC Codec ID : 40 Duration : 6 min 5 s Bit rate mode : Variable Bit rate : 192 kb/s Maximum bit rate : 202 kb/s Channel(s) : 2 channels Channel positions : Front: L R Sampling rate : 44.1 kHz Frame rate : 43.066 FPS (1024 spf) Compression mode : Lossy Stream size : 8.37 MiB (14%) Title : IsoMedia File Produced by Google, 5-11-2011 Encoded date : UTC 2017-03-29 15:37:31 Tagged date : UTC 2017-03-29 15:37:32

File list

Comments - 0