[60FPS] Porter Robinson & Madeon - Shelter (1280x720 x264 FLAC)

Category:
Date:
2017-04-30 20:17 UTC
Submitter:
Seeders:
0
Information:
Leechers:
1
File size:
157.3 MiB
Completed:
0
Info hash:
08ae99909781f4a70474430983792000b4716000
Video interpolated at 60 FPS with the Software "Hybrid" If you want it to convert Music Videos, Openings, etcetera. At 60FPS, you can suggest it in the comments. Terms: -Only Sources from Asia to upload this page. -No Chapter of any anime, only Opening Mediainfo General Unique ID : 175543301317987722278171147504855840280 (0x841068F954C1CB63ACFEFF0F9FF87618) Complete name : C:\\Users\\UHD\\Videos\\Music Video Remux\\J-Pop\\Interpolation\\Shelter @ 60fps by Porter Robinson & Madeon.mkv Format : Matroska Format version : Version 4 / Version 2 File size : 157 MiB Duration : 6 min 7 s Overall bit rate mode : Variable Overall bit rate : 3 592 kb/s Encoded date : UTC 2017-05-01 01:12:22 Writing application : mkvmerge v10.0.0 ('To Drown In You') 32bit Writing library : libebml v1.3.4 + libmatroska v1.4.5 Video ID : 1 Format : AVC Format/Info : Advanced Video Codec Format profile : Main@L3.2 Format settings, CABAC : Yes Format settings, ReFrames : 3 frames Codec ID : V\_MPEG4/ISO/AVC Duration : 6 min 6 s Bit rate : 1 787 kb/s Width : 1 280 pixels Height : 720 pixels Display aspect ratio : 16:9 Frame rate mode : Constant Frame rate : 60.000 FPS Color space : YUV Chroma subsampling : 4:2:0 Bit depth : 8 bits Scan type : Progressive Bits/(Pixel\*Frame) : 0.032 Stream size : 78.0 MiB (50%) Title : 60FPS Language : Japanese Default : Yes Forced : No Color range : Limited Color primaries : BT.709 Transfer characteristics : BT.709 Matrix coefficients : BT.709 Audio #1 ID : 2 Format : FLAC Format/Info : Free Lossless Audio Codec Codec ID : A\_FLAC Duration : 6 min 6 s Bit rate mode : Variable Bit rate : 834 kb/s Channel(s) : 2 channels Channel positions : Front: L R Sampling rate : 44.1 kHz Frame rate : 9.573 FPS (4607 spf) Bit depth : 16 bits Stream size : 36.4 MiB (23%) Title : Japonés e Ingles \[FLAC\] Writing library : libFLAC 1.3.1 (UTC 2014-11-25) Language : Multiple languages Default : Yes Forced : No Audio #2 ID : 3 Format : FLAC Format/Info : Free Lossless Audio Codec Codec ID : A\_FLAC Duration : 6 min 7 s Bit rate mode : Variable Bit rate : 973 kb/s Channel(s) : 2 channels Channel positions : Front: L R Sampling rate : 48.0 kHz Frame rate : 41.667 FPS (1152 spf) Bit depth : 24 bits Stream size : 42.6 MiB (27%) Title : 24BITS Writing library : libFLAC 1.3.1 (UTC 2014-11-25) Language : Multiple languages Default : No Forced : No Text ID : 4 Format : UTF-8 Codec ID : S\_TEXT/UTF8 Codec ID/Info : UTF-8 Plain Text Duration : 5 min 39 s Bit rate : 33 b/s Count of elements : 43 Stream size : 1.37 KiB (0%) Title : Sub. Español Corregido Language : Spanish Default : Yes Forced : No Spectrogram: 16-bit [![Image](https://preview.ibb.co/nBwmy5/16_bit_Porter_Robinson_Madeon_Shelter_flac.png)](https://ibb.co/ipa1WQ) 24-bit [![Image](https://preview.ibb.co/eAzpJ5/24_bit_Porter_Robinson_Madeon_Shelter_flac.png)](https://ibb.co/miVwy5) Thumbnails: [![Image](https://preview.ibb.co/gXperQ/Shelter_by_Porter_Robinson_Madeon_mkv.png)](https://ibb.co/dBCcd5)

File list

  • Shelter by Porter Robinson & Madeon.mkv (157.3 MiB)