[60FPS] K-ON! ED1 - Don't Say 'Lazy (1280x720 x264 AAC)

Category:
Date:
2017-04-30 11:38 UTC
Submitter:
Seeders:
0
Information:
No information.
Leechers:
1
File size:
21.1 MiB
Completed:
98
Info hash:
9aac554d7690ff233b20b9b486046b77ef383731
Video interpolated at 60 FPS with the Software "Hybrid" Mediainfo General Complete name : C:\\Users\\UHD\\Videos\\Music Video Remux\\J-Pop\\Interpolation\\K-ON! Ending 1 - Don't Say 'Lazy (60FPS).mp4 Format : MPEG-4 Format profile : Base Media Codec ID : isom (isom/iso2/avc1/mp41) File size : 21.1 MiB Duration : 1 min 30 s Overall bit rate : 1 965 kb/s Writing application : Lavf56.25.101 Video ID : 1 Format : AVC Format/Info : Advanced Video Codec Format profile : Main@L3.2 Format settings, CABAC : Yes Format settings, ReFrames : 3 frames Codec ID : avc1 Codec ID/Info : Advanced Video Coding Duration : 1 min 29 s Bit rate : 1 825 kb/s Width : 1 280 pixels Height : 720 pixels Display aspect ratio : 16:9 Frame rate mode : Variable Frame rate : 59.940 FPS Minimum frame rate : 59.920 FPS Maximum frame rate : 59.960 FPS Color space : YUV Chroma subsampling : 4:2:0 Bit depth : 8 bits Scan type : Progressive Bits/(Pixel\*Frame) : 0.033 Stream size : 19.6 MiB (93%) Color range : Limited Color primaries : BT.709 Transfer characteristics : BT.709 Matrix coefficients : BT.709 Audio ID : 2 Format : AAC Format/Info : Advanced Audio Codec Format profile : LC Codec ID : 40 Duration : 1 min 30 s Bit rate mode : Constant Bit rate : 126 kb/s Channel(s) : 2 channels Channel positions : Front: L R Sampling rate : 44.1 kHz Frame rate : 43.066 FPS (1024 spf) Compression mode : Lossy Stream size : 1.35 MiB (6%) Default : Yes Alternate group : 1 Thumbnails \[spoiler\] uploading... Wait...

File list

  • K-ON! Ending 1 - Don't Say 'Lazy (60FPS).mp4 (21.1 MiB)