[60FPS] Japan Animator Expo - Daoko - Girl (1280x720 x264 AAC)

Category:
Date:
2017-04-30 10:09 UTC
Submitter:
Seeders:
0
Information:
No information.
Leechers:
0
File size:
114.4 MiB
Completed:
315
Info hash:
efe02d7f25e5d2fe15adcc1be74280475d3b4b93
Video interpolated at 60 FPS with the Software "Hybrid" Mediainfo General Unique ID : 191494576379242471846595009555064447073 (0x9010838DE10C55108FB89EE31E6C6061) Complete name : C:\\Users\\UHD\\Videos\\Music Video Remux\\J-Pop\\Interpolation\\GIRL\_-\_DAOKO\_60\_FPS\_HD\_\[YT-720p60\]\[8mvc8p5J-GE\].dash.mkv Format : Matroska Format version : Version 4 / Version 2 File size : 114 MiB Duration : 7 min 6 s Overall bit rate : 2 247 kb/s Encoded date : UTC 2016-11-24 20:23:54 Writing application : mkvmerge v9.4.2 ('So High') 32bit Writing library : libebml v1.3.4 + libmatroska v1.4.5 Video ID : 1 Format : AVC Format/Info : Advanced Video Codec Format profile : Main@L3.2 Format settings, CABAC : Yes Format settings, ReFrames : 3 frames Codec ID : V\_MPEG4/ISO/AVC Duration : 7 min 6 s Bit rate : 2 118 kb/s Width : 1 280 pixels Height : 720 pixels Display aspect ratio : 16:9 Frame rate mode : Constant Frame rate : 60.000 FPS Color space : YUV Chroma subsampling : 4:2:0 Bit depth : 8 bits Scan type : Progressive Bits/(Pixel\*Frame) : 0.038 Stream size : 108 MiB (94%) Default : Yes Forced : No Color range : Limited Color primaries : BT.709 Transfer characteristics : BT.709 Matrix coefficients : BT.709 Audio ID : 2 Format : AAC Format/Info : Advanced Audio Codec Format profile : LC Codec ID : A\_AAC Duration : 7 min 6 s Bit rate : 126 kb/s Channel(s) : 2 channels Channel positions : Front: L R Sampling rate : 44.1 kHz Frame rate : 43.066 FPS (1024 spf) Compression mode : Lossy Stream size : 6.39 MiB (6%) Default : Yes Forced : No

File list

  • GIRL - DAOKO 720p60.mkv (114.4 MiB)