[DBP] Dragon Ball Z - Episode 003 - [Broadcast Audio & Dragon Box Audio] - [720p] - [R2J Sourced]

Category:
Date:
2017-04-27 14:09 UTC
Submitter:
Seeders:
0
Information:
Leechers:
0
File size:
1.8 GiB
Completed:
0
Info hash:
9f7df4b3c359686b0999d5610e0b98de3821cc0c
General Unique ID : 188024993311992735906107192793575022408 (0x8D744BE6DA351545BDAB6B4FACCD5F48) Complete name : K:\\test test test\\\[DBP\] Dragon Ball Z - Episode 003.mkv Format : Matroska Format version : Version 4 / Version 2 File size : 1.85 GiB Duration : 24 min Overall bit rate mode : Variable Overall bit rate : 10.7 Mb/s Encoded date : UTC 2017-04-27 18:29:03 Writing application : mkvmerge v9.5.0 ('Quiet Fire') 64bit Writing library : libebml v1.3.4 + libmatroska v1.4.5 Video ID : 1 Format : AVC Format/Info : Advanced Video Codec Format profile : High@L3.1 Format settings, CABAC : Yes Format settings, ReFrames : 3 frames Codec ID : V\_MPEG4/ISO/AVC Duration : 24 min Bit rate mode : Constant Bit rate : 9 980 kb/s / 9 980 kb/s Width : 1 280 pixels Height : 720 pixels Display aspect ratio : 16:9 Frame rate mode : Constant Frame rate : 23.976 (24000/1001) FPS Standard : NTSC Color space : YUV Chroma subsampling : 4:2:0 Bit depth : 8 bits Scan type : Progressive Bits/(Pixel\*Frame) : 0.452 Stream size : 1.65 GiB (89%) Writing library : x264 core 114 Encoding settings : cabac=1 / ref=3 / deblock=1:0:0 / analyse=0x3:0x113 / me=hex / subme=7 / psy=1 / psy\_rd=1.00:0.00 / mixed\_ref=1 / me\_range=16 / chroma\_me=1 / trellis=1 / 8x8dct=1 / cqm=2 / deadzone=21,11 / fast\_pskip=1 / chroma\_qp\_offset=-2 / threads=6 / sliced\_threads=0 / slices=1 / nr=0 / decimate=1 / interlaced=0 / constrained\_intra=0 / bframes=3 / b\_pyramid=0 / b\_adapt=1 / b\_bias=0 / direct=1 / weightb=1 / open\_gop=0 / weightp=2 / keyint=250 / keyint\_min=23 / scenecut=40 / intra\_refresh=0 / rc\_lookahead=40 / rc=cbr / mbtree=1 / bitrate=9980 / ratetol=1.0 / qcomp=0.60 / qpmin=3 / qpmax=69 / qpstep=4 / vbv\_maxrate=9980 / vbv\_bufsize=9977 / nal\_hrd=cbr / ip\_ratio=1.40 / aq=1:1.00 Default : Yes Forced : No Color range : Limited Color primaries : BT.709 Transfer characteristics : BT.709 Matrix coefficients : BT.709 Audio #1 ID : 2 Format : AAC Format/Info : Advanced Audio Codec Format profile : LC Codec ID : A\_AAC Duration : 24 min Bit rate : 448 kb/s Channel(s) : 2 channels Channel positions : Front: L R Sampling rate : 48.0 kHz Frame rate : 46.875 FPS (1024 spf) Compression mode : Lossy Stream size : 78.9 MiB (4%) Title : Dragon Box Audio Language : Japanese Default : Yes Forced : No Audio #2 ID : 3 Format : FLAC Format/Info : Free Lossless Audio Codec Codec ID : A\_FLAC Duration : 24 min Bit rate mode : Variable Bit rate : 704 kb/s Channel(s) : 2 channels Channel positions : Front: L R Sampling rate : 48.0 kHz Frame rate : 11.719 FPS (4096 spf) Bit depth : 16 bits Stream size : 124 MiB (7%) Title : Broadast Audio Writing library : libFLAC 1.0.4 (UTC 2014-11-25) Language : Japanese Default : No Forced : No Text ID : 4 Format : ASS Codec ID : S\_TEXT/ASS Codec ID/Info : Advanced Sub Station Alpha Duration : 24 min Bit rate : 111 b/s Count of elements : 277 Compression mode : Lossless Stream size : 19.8 KiB (0%) Title : English Language : English Default : Yes Forced : No Encoded HD 1280 x 720 , audio synced, subtitle timed . Enjoy ! Each screenshot is : My encode and CC ----------- Dragon Box Z R2J [![Image](http://preview.ibb.co/d2U2vk/1.jpg)](http://ibb.co/bVtUak) [![Image](http://preview.ibb.co/ivvLgQ/111.jpg)](http://ibb.co/ddZro5) [![Image](http://preview.ibb.co/ey70gQ/2.jpg)](http://ibb.co/cQWRMQ) [![Image](http://preview.ibb.co/ftu2vk/222.jpg)](http://ibb.co/ebjP85) [![Image](http://preview.ibb.co/g370gQ/3.jpg)](http://ibb.co/kvbt1Q) [![Image](http://preview.ibb.co/mLFmMQ/333.jpg)](http://ibb.co/gCbFFk) [![Image](http://preview.ibb.co/fR5mMQ/4.jpg)](http://ibb.co/h6OHT5) [![Image](http://preview.ibb.co/dOPfgQ/444.jpg)](http://ibb.co/jnT6MQ) [![Image](http://preview.ibb.co/dtJ6MQ/5.jpg)](http://ibb.co/eZccT5) [![Image](http://preview.ibb.co/hXr485/555.jpg)](http://ibb.co/nemt1Q) [![Image](http://preview.ibb.co/nvy6MQ/6.jpg)](http://ibb.co/fisBo5) [![Image](http://preview.ibb.co/fcmRMQ/666.jpg)](http://ibb.co/ceJHT5) [![Image](http://preview.ibb.co/h492vk/7.jpg)](http://ibb.co/conY1Q) [![Image](http://preview.ibb.co/gKcY1Q/777.jpg)](http://ibb.co/fm20gQ) [![Image](http://preview.ibb.co/fnoHT5/8.jpg)](http://ibb.co/gS7pak) [![Image](http://preview.ibb.co/bSxY1Q/888.jpg)](http://ibb.co/hr20gQ) [![Image](http://preview.ibb.co/cNkaFk/9.jpg)](http://ibb.co/foMt1Q) [![Image](http://preview.ibb.co/fD2Nvk/999.jpg)](http://ibb.co/byQaFk) [![Image](http://preview.ibb.co/nnLmMQ/10.jpg)](http://ibb.co/faEro5) [![Image](http://preview.ibb.co/cAFmMQ/1010.jpg)](http://ibb.co/c2Xpak) [![Image](http://preview.ibb.co/dqNBo5/11.jpg)](http://ibb.co/eWghvk) [![Image](http://preview.ibb.co/gUj2vk/1111.jpg)](http://ibb.co/nPfLgQ) [![Image](http://preview.ibb.co/htQWo5/12.jpg)](http://ibb.co/fMqxT5) [![Image](http://preview.ibb.co/dMKfgQ/1212.jpg)](http://ibb.co/bQZD1Q) [![Image](http://preview.ibb.co/kgwRMQ/1313.jpg)](http://ibb.co/nOzfgQ)

File list

  • [DBP] Dragon Ball Z - Episode 003.mkv (1.8 GiB)
Damn, I wish this release had continued as the BA audio of episodes 1 and 2 sound way better than WinxBloom1980's compressed version.