Street.Fighter.IV.The.Ties.That.Bind.2009.BluRay.1080p-Hi10p.Dual-Audio.DTS.x264-iAHD.mkv

Category:
Date:
2017-04-06 21:08 UTC
Submitter:
Seeders:
0
Information:
No information.
Leechers:
0
File size:
3.3 GiB
Completed:
83
Info hash:
2cc0613d1302a9d2a2e9e46c84768358f8f8671d
Video ID : 1 Format : AVC Format/Info : Advanced Video Codec Format profile : High 10@L5 Format settings, CABAC : Yes Format settings, ReFrames : 6 frames Codec ID : V\_MPEG4/ISO/AVC Duration : 1 h 5 min Bit rate : 4 054 kb/s Width : 1 920 pixels Height : 1 080 pixels Display aspect ratio : 16:9 Frame rate mode : Constant Frame rate : 23.976 (24000/1001) FPS Color space : YUV Chroma subsampling : 4:2:0 Bit depth : 10 bits Scan type : Progressive Bits/(Pixel\*Frame) : 0.082 Stream size : 1.85 GiB (56%) Writing library : x264 core 148 r2762+56 6284cf3 t\_mod\_Custom \[10-bit@all X86\_64\] Encoding settings : cabac=1 / ref=6 / deblock=1:0:0 / analyse=0x3:0x133 / me=umh / subme=10 / psy=1 / fade\_compensate=0.00 / psy\_rd=1.00:0.00 / mixed\_ref=1 / me\_range=24 / chroma\_me=1 / trellis=2 / 8x8dct=1 / cqm=0 / deadzone=21,11 / fast\_pskip=0 / chroma\_qp\_offset=-2 / threads=12 / lookahead\_threads=1 / sliced\_threads=0 / nr=0 / decimate=1 / interlaced=0 / bluray\_compat=0 / constrained\_intra=0 / fgo=0 / bframes=4 / b\_pyramid=2 / b\_adapt=2 / b\_bias=0 / direct=3 / weightb=1 / open\_gop=0 / weightp=2 / keyint=250 / keyint\_min=23 / scenecut=40 / intra\_refresh=0 / rc\_lookahead=50 / rc=crf / mbtree=1 / crf=16.0000 / qcomp=0.60 / qpmin=0:0:0 / qpmax=81:81:81 / qpstep=4 / ip\_ratio=1.40 / aq=1:1.00 / aq-sensitivity=10.00 / aq-factor=1.00:1.00:1.00 / aq2=0 / aq3=0 Language : English Default : Yes Forced : No Color range : Limited Color primaries : BT.709 Transfer characteristics : BT.709 Matrix coefficients : BT.709 Audio #1 ID : 2 Format : DTS Format/Info : Digital Theater Systems Mode : 16 Format settings, Endianness : Big Codec ID : A\_DTS Duration : 1 h 5 min Bit rate mode : Constant Bit rate : 1 509 kb/s Channel(s) : 6 channels Channel positions : Front: L C R, Side: L R, LFE Sampling rate : 48.0 kHz Frame rate : 93.750 FPS (512 spf) Bit depth : 24 bits Compression mode : Lossy Stream size : 706 MiB (21%) Language : English Default : Yes Forced : No Audio #2 ID : 3 Format : DTS Format/Info : Digital Theater Systems Mode : 16 Format settings, Endianness : Big Codec ID : A\_DTS Duration : 1 h 5 min Bit rate mode : Constant Bit rate : 1 509 kb/s Channel(s) : 6 channels Channel positions : Front: L C R, Side: L R, LFE Sampling rate : 48.0 kHz Frame rate : 93.750 FPS (512 spf) Bit depth : 24 bits Compression mode : Lossy Stream size : 706 MiB (21%) Language : Japanese Default : No Forced : No Text ID : 4 Format : PGS Muxing mode : zlib Codec ID : S\_HDMV/PGS Codec ID/Info : Picture based subtitle format used on BDs/HD-DVDs Language : English Default : No Forced : No Menu 00:00:00.000 : en:Chapter 01 00:11:50.835 : en:Chapter 02 00:16:48.298 : en:Chapter 03 00:21:50.517 : en:Chapter 04 00:27:39.532 : en:Chapter 05 00:33:51.320 : en:Chapter 06 00:36:56.422 : en:Chapter 07 00:44:03.140 : en:Chapter 08 00:48:44.379 : en:Chapter 09 00:56:40.021 : en:Chapter 10 00:58:23.625 : en:Chapter 11 01:01:58.464 : en:Chapter 12

File list

  • Street.Fighter.IV.The.Ties.That.Bind.2009.BluRay.1080p-Hi10p.Dual-Audio.DTS.x264-iAHD.mkv (3.3 GiB)