Bayonetta.Bloody.Fate.2013.1080p-Hi10p.Dual-Audio.AC3.x264-iAHD

Category:
Date:
2017-04-05 19:03 UTC
Submitter:
Seeders:
0
Information:
No information.
Leechers:
2
File size:
4.4 GiB
Completed:
19
Info hash:
4e329969606795922062902e03eaf181f94b46d6
Video ID : 1 Format : AVC Format/Info : Advanced Video Codec Format profile : High 10@L5 Format settings, CABAC : Yes Format settings, ReFrames : 6 frames Codec ID : V\_MPEG4/ISO/AVC Duration : 1 h 30 min Bit rate : 6 114 kb/s Width : 1 920 pixels Height : 1 080 pixels Display aspect ratio : 16:9 Frame rate mode : Constant Frame rate : 23.976 (24000/1001) FPS Color space : YUV Chroma subsampling : 4:2:0 Bit depth : 10 bits Scan type : Progressive Bits/(Pixel\*Frame) : 0.123 Stream size : 3.86 GiB (87%) Writing library : x264 core 148 r2762+56 6284cf3 t\_mod\_Custom \[10-bit@all X86\_64\] Encoding settings : cabac=1 / ref=6 / deblock=1:0:0 / analyse=0x3:0x133 / me=umh / subme=10 / psy=1 / fade\_compensate=0.00 / psy\_rd=1.00:0.00 / mixed\_ref=1 / me\_range=24 / chroma\_me=1 / trellis=2 / 8x8dct=1 / cqm=0 / deadzone=21,11 / fast\_pskip=0 / chroma\_qp\_offset=-2 / threads=12 / lookahead\_threads=1 / sliced\_threads=0 / nr=0 / decimate=1 / interlaced=0 / bluray\_compat=0 / constrained\_intra=0 / fgo=0 / bframes=4 / b\_pyramid=2 / b\_adapt=2 / b\_bias=0 / direct=3 / weightb=1 / open\_gop=0 / weightp=2 / keyint=250 / keyint\_min=23 / scenecut=40 / intra\_refresh=0 / rc\_lookahead=50 / rc=crf / mbtree=1 / crf=16.0000 / qcomp=0.60 / qpmin=0:0:0 / qpmax=81:81:81 / qpstep=4 / ip\_ratio=1.40 / aq=1:1.00 / aq-sensitivity=10.00 / aq-factor=1.00:1.00:1.00 / aq2=0 / aq3=0 Language : English Default : Yes Forced : No Color range : Limited Color primaries : BT.709 Transfer characteristics : BT.709 Matrix coefficients : BT.709 Audio #1 ID : 2 Format : AC-3 Format/Info : Audio Coding 3 Format settings, Endianness : Big Codec ID : A\_AC3 Duration : 1 h 30 min Bit rate mode : Constant Bit rate : 448 kb/s Channel(s) : 6 channels Channel positions : Front: L C R, Side: L R, LFE Sampling rate : 48.0 kHz Frame rate : 31.250 FPS (1536 spf) Bit depth : 16 bits Compression mode : Lossy Stream size : 290 MiB (6%) Language : English Service kind : Complete Main Default : Yes Forced : No Audio #2 ID : 3 Format : AC-3 Format/Info : Audio Coding 3 Format settings, Endianness : Big Codec ID : A\_AC3 Duration : 1 h 30 min Bit rate mode : Constant Bit rate : 448 kb/s Channel(s) : 6 channels Channel positions : Front: L C R, Side: L R, LFE Sampling rate : 48.0 kHz Frame rate : 31.250 FPS (1536 spf) Bit depth : 16 bits Compression mode : Lossy Stream size : 290 MiB (6%) Language : Japanese Service kind : Complete Main Default : No Forced : No Text #1 ID : 4 Format : PGS Muxing mode : zlib Codec ID : S\_HDMV/PGS Codec ID/Info : Picture based subtitle format used on BDs/HD-DVDs Title : Newspaper Title Language : English Default : Yes Forced : Yes Text #2 ID : 5 Format : PGS Muxing mode : zlib Codec ID : S\_HDMV/PGS Codec ID/Info : Picture based subtitle format used on BDs/HD-DVDs Title : JP Audio Language : English Default : No Forced : No Menu 00:00:00.000 : en:Chapter 01 00:07:26.404 : en:Chapter 02 00:15:19.001 : en:Chapter 03 00:21:52.144 : en:Chapter 04 00:29:02.907 : en:Chapter 05 00:35:55.903 : en:Chapter 06 00:43:28.063 : en:Chapter 07 00:49:48.610 : en:Chapter 08 00:58:31.799 : en:Chapter 09 01:07:13.029 : en:Chapter 10 01:17:01.992 : en:Chapter 11 01:25:03.098 : en:Chapter 12 01:30:11.447 : en:Chapter 13

File list

  • Bayonetta.Bloody.Fate.2013.1080p-Hi10p.Dual-Audio.AC3.x264-iAHD.mkv (4.4 GiB)

pg1

User
somebody seed,pretty please...