Ghost in the Shell Stand Alone Complex S02 1080p Main10 BluRay DD5.1 x265 [CTR] (English Dubbed Dual Audio) (2nd Gig)

Category:
Date:
2017-03-31 18:17 UTC
Submitter:
Seeders:
18
File size:
33.2 GiB
Completed:
1404
Info hash:
573b3979a96646ba0e4395b74209bd4c4b875779
![Image](https://i.gyazo.com/27353e3ef505440cf647614f8a4401fb.png) **[ā†Season 1](https://www.nyaa.se/?page=view&tid=886678)** **[Release Thread](http://kametsu.com/topic/56800-megatorrent-ctr-ghost-in-the-shell-stand-alone-complex-bd-1080p-main10-x265flac-51-dual-audio-cyberpunk-masterpiece/) | [CTR Release Index](http://kametsu.com/topic/54803-the-ctr-index-your-new-home-for-bloated-1080p-dual-audio-releases/)** _~cyberpunk masterpiece~_ ![Image](http://kametsu.com/images/downloads/info.png) **This batch contains the fixed version of episode 8, now with the correct video track for the episode. Thanks to Koby for fixing it.** `<br></br>Video Track: 1080p-Main10p (VCB-S/philosophy-raws)<br></br><br></br>Audio Track 1 (Default): English 5.1AC3 (VCB-S/philosophy-raws)<br></br>Audio Track 2: Japanese 5.1 5.1FLAC (VCB-S/philosophy-raws)<br></br><br></br>Subtitle Track 1 (Default): English Signs(.ASS) (OZC)<br></br>Subtitle Track 2: English Dialogue (.ASS) (OZC)<br></br><br></br>Chapters<br></br>` I love this show. Realistic, insightful, actually good action scenes, mature and well-written throughout. Not perfect, sure, but what is? Still one of the all-time greats. For this release, I had to put together some subs after seeing the improvements to be found in VCB-S and philosophy-raws newer encode. As such, this is a combination of their x265 Main10 release with OZC's signs and subtitles. Simple stuff, but worth it for a show this good. Quick notes to be had: There is no lossless audio to be found for the English track. VCB/philosophy included the source AC3 5.1, which I chose over OZC's reencoded AAC set. General Unique ID : 174581473604483682902830774156704202796 (0x83572B34D6D70B919DF4B340E685C02C) Complete name : S:\\Anime\\Ghost in the Shell - Stand Alone Complex\\Ghost.in.the.Shell.Stand.Alone.Complex.S02.1080p-Main10.BluRay.DD5.1.x265-CTR\\Ghost.in.the.Shell.Stand.Alone.Complex.S02E01.1080p-Main10.BluRay.DD5.1.x265-CTR.\[A86CE68C\].mkv Format : Matroska Format version : Version 4 / Version 2 File size : 1.25 GiB Duration : 24 min 32 s Overall bit rate mode : Variable Overall bit rate : 7 321 kb/s Encoded date : UTC 2017-01-04 01:16:32 Writing application : mkvmerge v9.2.0 ('Photograph') 64bit Writing library : libebml v1.3.3 + libmatroska v1.4.4 Attachments : Androgyne\_TB.otf / BellGothicStd-Black.otf / BellGothicStd-Bold.otf / Brianne\_s\_hand.ttf / ITCKabelStd-Medium.otf / kkberktp.ttf / POORICH.TTF / Sony\_Sketch\_EF.ttf / X-SCALE.TTF / YOUTHAN\_.ttf / YOUTHANI.ttf / YOUTTX\_\_.ttf Video ID : 1 Format : HEVC Format/Info : High Efficiency Video Coding Format profile : Main 10@L5.2@Main Codec ID : V\_MPEGH/ISO/HEVC Duration : 24 min 32 s Bit rate : 5 209 kb/s Width : 1 920 pixels Height : 1 040 pixels Display aspect ratio : 1.85:1 Frame rate mode : Constant Frame rate : 23.976 (24000/1001) FPS Color space : YUV Chroma subsampling : 4:2:0 Bit depth : 10 bits Bits/(Pixel\*Frame) : 0.109 Stream size : 914 MiB (71%) Title : \[VCB-Studio & philosophy-raws\] Writing library : x265 1.9+5-20f14d78dbad:\[Windows\]\[MSVC 1900\]\[64 bit\] 10bit Encoding settings : wpp / ctu=32 / min-cu-size=8 / max-tu-size=16 / tu-intra-depth=3 / tu-inter-depth=3 / me=3 / subme=4 / merange=44 / rect / no-amp / max-merge=4 / temporal-mvp / no-early-skip / rdpenalty=2 / no-tskip / no-tskip-fast / no-strong-intra-smoothing / no-lossless / no-cu-lossless / no-constrained-intra / no-fast-intra / no-open-gop / no-temporal-layers / interlace=0 / keyint=720 / min-keyint=1 / scenecut=40 / rc-lookahead=72 / lookahead-slices=0 / bframes=6 / bframe-bias=0 / b-adapt=2 / ref=6 / limit-refs=1 / limit-modes / weightp / weightb / aq-mode=1 / qg-size=16 / aq-strength=1.10 / cbqpoffs=0 / crqpoffs=0 / rd=6 / psy-rd=1.50 / rdoq-level=1 / psy-rdoq=5.00 / signhide / deblock=-2:-2 / no-sao / no-sao-non-deblock / b-pyramid / cutree / no-intra-refresh / rc=crf / crf=18.0 / qcomp=0.80 / qpmin=0 / qpmax=51 / qpstep=4 / vbv-maxrate=30720 / vbv-bufsize=40960 / crf-max=0.0 / ipratio=1.40 / pbratio=1.20 Language : Japanese Default : Yes Forced : No Audio [\#1](//www.nyaa.se/?page=view&tid=1) ID : 2 Format : AC-3 Format/Info : Audio Coding 3 Mode extension : CM (complete main) Format settings, Endianness : Big Codec ID : A\_AC3 Duration : 24 min 32 s Bit rate mode : Constant Bit rate : 640 kb/s Channel(s) : 6 channels Channel positions : Front: L C R, Side: L R, LFE Sampling rate : 48.0 kHz Frame rate : 31.250 FPS (1536 spf) Compression mode : Lossy Stream size : 112 MiB (9%) Title : AC3 5.1 \[VCB-philosophy\] Language : English Default : Yes Forced : No Audio [\#2](//www.nyaa.se/?page=view&tid=2) ID : 3 Format : FLAC Format/Info : Free Lossless Audio Codec Codec ID : A\_FLAC Duration : 24 min 32 s Bit rate mode : Variable Bit rate : 1 466 kb/s Channel(s) : 6 channels Channel positions : Front: L C R, Side: L R, LFE Sampling rate : 48.0 kHz Frame rate : 11.719 FPS (4096 spf) Bit depth : 16 bits Stream size : 257 MiB (20%) Title : FLAC 5.1 \[VCB-philosophy\] Writing library : libFLAC 1.3.1 (UTC 2014-11-25) Language : Japanese Default : No Forced : No Text [\#1](//www.nyaa.se/?page=view&tid=1) ID : 4 Format : ASS Codec ID : S\_TEXT/ASS Codec ID/Info : Advanced Sub Station Alpha Duration : 24 min 23 s Bit rate : 20 b/s Count of elements : 40 Compression mode : Lossless Stream size : 3.74 KiB (0%) Title : Signs \[OZC\] Language : English Default : Yes Forced : No Text [\#2](//www.nyaa.se/?page=view&tid=2) ID : 5 Format : ASS Codec ID : S\_TEXT/ASS Codec ID/Info : Advanced Sub Station Alpha Duration : 24 min 23 s Bit rate : 151 b/s Count of elements : 308 Compression mode : Lossless Stream size : 27.1 KiB (0%) Title : Subtitles \[OZC\] Language : Japanese Default : No Forced : No Menu 00:00:00.000 : en:Chapter 01 00:01:32.025 : en:Chapter 02 00:12:29.082 : en:Chapter 03 00:23:02.114 : en:Chapter 04 **CTR Releases:** Collecting the best available sources around the internet and packing them up so you don't have to. My releases cater specifically to English audio viewers, though Japanese viewers are of course welcome. More details can be found on the individual release threads or at [my index](http://kametsu.com/topic/54803-the-ctr-index-your-new-home-for-bloated-1080p-dual-audio-releases/) on Kametsu, where you can also pitch me on whatever shows I go after next. Enjoy. -ctr

File list

  • Ghost.in.the.Shell.Stand.Alone.Complex.S02.1080p-Main10.BluRay.DD5.1.x265-CTR
    • Ghost.in.the.Shell.Stand.Alone.Complex.S02E01.1080p-Main10.BluRay.DD5.1.x265-CTR.[A86CE68C].mkv (1.3 GiB)
    • Ghost.in.the.Shell.Stand.Alone.Complex.S02E02.1080p-Main10.BluRay.DD5.1.x265-CTR.[B4189298].mkv (1.3 GiB)
    • Ghost.in.the.Shell.Stand.Alone.Complex.S02E03.1080p-Main10.BluRay.DD5.1.x265-CTR.[0F8B666C].mkv (1.2 GiB)
    • Ghost.in.the.Shell.Stand.Alone.Complex.S02E04.1080p-Main10.BluRay.DD5.1.x265-CTR.[5DD71B2D].mkv (1.5 GiB)
    • Ghost.in.the.Shell.Stand.Alone.Complex.S02E05.1080p-Main10.BluRay.DD5.1.x265-CTR.[D12B4CD1].mkv (1.4 GiB)
    • Ghost.in.the.Shell.Stand.Alone.Complex.S02E06.1080p-Main10.BluRay.DD5.1.x265-CTR.[403E172E].mkv (1.4 GiB)
    • Ghost.in.the.Shell.Stand.Alone.Complex.S02E07.1080p-Main10.BluRay.DD5.1.x265-CTR.[7BABAD4D].mkv (1.3 GiB)
    • Ghost.in.the.Shell.Stand.Alone.Complex.S02E08.PROPER.1080p-Main10.BluRay.DD5.1.x265-CTR.[07B8021A].mkv (1.2 GiB)
    • Ghost.in.the.Shell.Stand.Alone.Complex.S02E09.1080p-Main10.BluRay.DD5.1.x265-CTR.[D3FEB02B].mkv (1.3 GiB)
    • Ghost.in.the.Shell.Stand.Alone.Complex.S02E10.1080p-Main10.BluRay.DD5.1.x265-CTR.[C0B66D3F].mkv (1.1 GiB)
    • Ghost.in.the.Shell.Stand.Alone.Complex.S02E11.1080p-Main10.BluRay.DD5.1.x265-CTR.[0A923F18].mkv (1.1 GiB)
    • Ghost.in.the.Shell.Stand.Alone.Complex.S02E12.1080p-Main10.BluRay.DD5.1.x265-CTR.[559EEF1D].mkv (1.3 GiB)
    • Ghost.in.the.Shell.Stand.Alone.Complex.S02E13.1080p-Main10.BluRay.DD5.1.x265-CTR.[030DEDDA].mkv (1.2 GiB)
    • Ghost.in.the.Shell.Stand.Alone.Complex.S02E14.1080p-Main10.BluRay.DD5.1.x265-CTR.[052481E3].mkv (1.3 GiB)
    • Ghost.in.the.Shell.Stand.Alone.Complex.S02E15.1080p-Main10.BluRay.DD5.1.x265-CTR.[3A56BEAF].mkv (1.2 GiB)
    • Ghost.in.the.Shell.Stand.Alone.Complex.S02E16.1080p-Main10.BluRay.DD5.1.x265-CTR.[5DE91259].mkv (1.9 GiB)
    • Ghost.in.the.Shell.Stand.Alone.Complex.S02E17.1080p-Main10.BluRay.DD5.1.x265-CTR.[B1F0415B].mkv (1.0 GiB)
    • Ghost.in.the.Shell.Stand.Alone.Complex.S02E18.1080p-Main10.BluRay.DD5.1.x265-CTR.[03056534].mkv (1.3 GiB)
    • Ghost.in.the.Shell.Stand.Alone.Complex.S02E19.1080p-Main10.BluRay.DD5.1.x265-CTR.[52AF9737].mkv (1.4 GiB)
    • Ghost.in.the.Shell.Stand.Alone.Complex.S02E20.1080p-Main10.BluRay.DD5.1.x265-CTR.[52105FD5].mkv (1.2 GiB)
    • Ghost.in.the.Shell.Stand.Alone.Complex.S02E21.1080p-Main10.BluRay.DD5.1.x265-CTR.[DE3A5874].mkv (1.3 GiB)
    • Ghost.in.the.Shell.Stand.Alone.Complex.S02E22.1080p-Main10.BluRay.DD5.1.x265-CTR.[AAEAB05E].mkv (1.0 GiB)
    • Ghost.in.the.Shell.Stand.Alone.Complex.S02E23.1080p-Main10.BluRay.DD5.1.x265-CTR.[9AD09DD9].mkv (1.2 GiB)
    • Ghost.in.the.Shell.Stand.Alone.Complex.S02E24.1080p-Main10.BluRay.DD5.1.x265-CTR.[45690A43].mkv (1.3 GiB)
    • Ghost.in.the.Shell.Stand.Alone.Complex.S02E25.1080p-Main10.BluRay.DD5.1.x265-CTR.[098FF54C].mkv (1.3 GiB)
    • Ghost.in.the.Shell.Stand.Alone.Complex.S02E26.1080p-Main10.BluRay.DD5.1.x265-CTR.[84A9BB08].mkv (1.2 GiB)
Great upload, thanks a lot!
Few of the episodes have the subs timed slightly wrong. Simply offsetting the sub timing fixes it. But on ep14 the subs are way off.