Girls und Panzer S00E34 This is the Real Anzio Battle 7.5 720p Hi10p BluRay AAC5.1 x264 [CTR] [D05C9682].mkv (English Dubbed Dual Audio)

Category:
Date:
2017-03-28 12:20 UTC
Submitter:
Seeders:
0
File size:
1.5 GiB
Completed:
393
Info hash:
34f44a27b242088cbbba3b38df1ec1c9b8a64a92
![Image](https://i.gyazo.com/f6e8265f3ee13e0f85c60da8ce5165a6.png) **[FLAC Edition➙](https://www.nyaa.se/?page=view&tid=910296)** **[←Main Series](https://www.nyaa.se/?page=view&tid=854211)** **[Release Thread](http://kametsu.com/topic/55674-megatorrent-ctr-girls-und-panzer-bd-1080p-hi10pflac-21-dual-audio-cute-girls-driving-serious-tanks/) | [CTR Release Index](http://kametsu.com/topic/54803-the-ctr-index-your-new-home-for-bloated-1080p-dual-audio-releases/)** _~PANZER VOR!~_ ![Image](http://kametsu.com/images/downloads/info.png) `<br></br>Medien Details<br></br>Videospur: 720p-Hi10p (Commie)<br></br><br></br>Audiospur 1 (Default): Englisch 5.1 AAC (Etzimal)<br></br>Audiospur 2: Japanisch 5.1 AAC (Beatrice-Raws)<br></br><br></br>Untertitel 1 (Default): Englisch Zeichen (.ASS) (Commie)<br></br>Untertitel 2: Englisch Gespräch (.ASS) (Commie)<br></br><br></br>Kapitel<br></br>` Anzio OVA, using subtitles from Commie (but preserving the timed OP karaoke from my original set). I will probably do the movie as well once it releases on USBD. Because the audio on this is so massive (2x 5.1 24-bit FLAC = nearly 2GB of audio), and there is no 720p version, I am releasing both FLAC 5.1 and AAC 5.1 in this case. Grab whichever you prefer, the AAC was encoded by me from lossless and should be of sufficient quality. Or you clicked on this torrent and found out there _is_ a 720p version. Blame Etzimal. General Unique ID : 249198341899508732689868319846996253647 (0xBB79DAD9207274A2BDF1865C69461BCF) Complete name : S:\\Incoming\\\[EtzimalIsBetterThanCatar\] Girls und Panzer - S00E34 OVA \[BD 720p AAC\] \[D05C9682\] (PROPER) (PROPERER) (PROPEREST).mkv Format : Matroska Format version : Version 4 / Version 2 File size : 1.50 GiB Duration : 37 min 28 s Overall bit rate : 5 716 kb/s Movie name : GIRLS und PANZER der FILM OVA Encoded date : UTC 2017-03-24 08:44:56 Writing application : mkvmerge v8.3.0 ('Over the Horizon') 64bit Writing library : libebml v1.3.1 + libmatroska v1.4.2 Attachments : Brush Strokes\_0.ttf / BRUSHED.TTF / CarrefourSans-Bold.otf / CATHSGBR.TTF / Clannad\_Round\_Regular.ttf / coolvetica rg.ttf / Dan\_Hand.ttf / DINPro-Medium.otf / DShirgy4.ttc / flickneb.ttf / Latienne\_Becker\_Med.ttf / Latienne\_Becker\_Med\_Italic.ttf / LEHN095.TTF / MrBubbleFont.ttf / SketchedCassiusBroken.ttf / 637\_0e2d4b16-6374-418b-a9bf-13527ea6414d.ttf.ttf / arial\_E.ttf Video ID : 1 Format : AVC Format/Info : Advanced Video Codec Format profile : High 10@L5 Format settings, CABAC : Yes Format settings, ReFrames : 16 frames Codec ID : V\_MPEG4/ISO/AVC Duration : 37 min 28 s Bit rate : 4 902 kb/s Width : 1 280 pixels Height : 720 pixels Display aspect ratio : 16:9 Frame rate mode : Constant Frame rate : 23.976 (24000/1001) FPS Color space : YUV Chroma subsampling : 4:2:0 Bit depth : 10 bits Scan type : Progressive Bits/(Pixel\*Frame) : 0.222 Stream size : 1.28 GiB (86%) Title : \[Commie\] Writing library : x264 core 142 r2431+42 c69a006 tMod \[10-bit@all X86\_64\] Encoding settings : cabac=1 / ref=16 / deblock=1:0:0 / analyse=0x3:0x133 / me=umh / subme=10 / psy=1 / fade\_compensate=0.72 / psy\_rd=0.80:0.20 / mixed\_ref=1 / me\_range=24 / chroma\_me=1 / trellis=2 / 8x8dct=1 / cqm=0 / deadzone=21,11 / fast\_pskip=1 / chroma\_qp\_offset=-3 / threads=18 / lookahead\_threads=4 / sliced\_threads=0 / nr=0 / decimate=1 / interlaced=0 / bluray\_compat=0 / constrained\_intra=0 / fgo=0 / bframes=16 / b\_pyramid=2 / b\_adapt=2 / b\_bias=0 / direct=3 / weightb=1 / open\_gop=0 / weightp=2 / keyint=250 / keyint\_min=23 / scenecut=40 / intra\_refresh=0 / rc\_lookahead=60 / rc=crf / mbtree=1 / crf=15.0000 / qcomp=0.72 / qpmin=0:0:0 / qpmax=81:81:81 / qpstep=4 / ip\_ratio=1.40 / aq=3:0.80 / aq-sensitivity=10.00 / aq-factor=1.00:1.00:1.00 / aq2=0 / aq3=0 Language : Japanese Default : Yes Forced : No Audio [\#1](//www.nyaa.se/?page=view&tid=1) ID : 2 Format : AAC Format/Info : Advanced Audio Codec Format profile : LC Codec ID : A\_AAC Duration : 37 min 27 s Bit rate : 384 kb/s Channel(s) : 6 channels Channel positions : Front: L C R, Side: L R, LFE Sampling rate : 48.0 kHz Frame rate : 46.875 FPS (1024 spf) Compression mode : Lossy Delay relative to video : 956 ms Stream size : 101 MiB (7%) Title : AAC 5.1 \[Etzimal\] Language : English Default : Yes Forced : No Audio [\#2](//www.nyaa.se/?page=view&tid=2) ID : 3 Format : AAC Format/Info : Advanced Audio Codec Format profile : LC Codec ID : A\_AAC Duration : 37 min 28 s Bit rate : 384 kb/s Channel(s) : 6 channels Channel positions : Front: L C R, Side: L R, LFE Sampling rate : 48.0 kHz Frame rate : 46.875 FPS (1024 spf) Compression mode : Lossy Delay relative to video : 20 ms Stream size : 103 MiB (7%) Title : AAC 5.1 \[Beatrice\] Language : Japanese Default : No Forced : No Text [\#1](//www.nyaa.se/?page=view&tid=1) ID : 4 Format : ASS Codec ID : S\_TEXT/ASS Codec ID/Info : Advanced Sub Station Alpha Duration : 34 min 4 s Bit rate : 1 745 b/s Count of elements : 1855 Compression mode : Lossless Stream size : 436 KiB (0%) Title : Signs \[Commie\] Language : English Default : Yes Forced : No Text [\#2](//www.nyaa.se/?page=view&tid=2) ID : 5 Format : ASS Codec ID : S\_TEXT/ASS Codec ID/Info : Advanced Sub Station Alpha Duration : 37 min 15 s Bit rate : 1 726 b/s Count of elements : 2584 Compression mode : Lossless Stream size : 471 KiB (0%) Title : Subittles \[Commie\] Language : Japanese Default : No Forced : No Menu 00:00:00.033 : en:Intro 00:02:05.600 : en:OP 00:03:35.610 : en:Episode 00:34:40.090 : en:ED 00:36:10.060 : en:Outro **CTR Releases:** Collecting the best available sources around the internet and packing them up so you don't have to. My releases cater specifically to English audio viewers, though Japanese viewers are of course welcome. More details can be found on the individual release threads or at [my index](http://kametsu.com/topic/54803-the-ctr-index-your-new-home-for-bloated-1080p-dual-audio-releases/) on Kametsu. Enjoy. -ctr

File list

  • Girls.und.Panzer.S00E34.This.is.the.Real.Anzio.Battle.7.5.720p-Hi10p.BluRay.AAC5.1.x264-CTR.[D05C9682].mkv (1.5 GiB)
Why are some words in german for the english sub?