Hunter x Hunter 2011 Volume 2 1080p Hi10p BluRay FLAC2.0 x264 [CTR] (English Dubbed Dual Audio)

Category:
Date:
2017-02-23 13:54 UTC
Submitter:
Seeders:
5
File size:
15.9 GiB
Completed:
1105
Info hash:
8caf7540ca79539497c2f2a76f348e72c11ac257
![Image](https://i.gyazo.com/9823ef8c33f495e1608a00d49815af34.png) **[←Episode 13 (Recap)](https://www.nyaa.se/?page=view&tid=868532)** | **Volume 3➙** **[720p Option➙](https://www.nyaa.se/?page=view&tid=902203)** **[Release Thread](http://kametsu.com/topic/56060-megatorrent-ctr-hunter-x-hunter-2011-720p-10bit-1080p-10bitaac-20-flac-20dual-audio-the-three-year-thread/) | [CTR Release Index](http://kametsu.com/topic/54803-the-ctr-index-your-new-home-for-bloated-1080p-dual-audio-releases/)** _~wherein ctr was a zombie~_ ![Image](http://kametsu.com/images/downloads/info.png) `<br></br>Video Track: 720p-Hi10p | 1080p-Hi10p (Coalgirls)<br></br><br></br>Audio Track 1 (Default): English 2.0 AAC | 2.0 FLAC (Etzimal)<br></br>Audio Track 2: Japanese 2.0 AAC | 2.0 FLAC (Coalgirls)<br></br><br></br>Subtitle Track 1 (Default): English Signs(.ASS) (Coalgirls)<br></br>Subtitle Track 2: English Dialogue (.ASS) (Coalgirls)<br></br><br></br>Chapters<br></br>` Volume 2, including the recap (which was encoded from the USBD by Etzimal, as the JPBD did not include it). Nothing else new to report. Enjoy. General Unique ID :223300137081158866600330856692021947957 (0xA7FE0AC461900A61A0261BC701276E35) Complete name :J:\\animework\\hxh\\1080p\\Hunter.x.Hunter.2011.S01E01.1080p-Hi10p.BluRay.FLAC2.0.x264-CTR.\[36A11463\].mkv Format :Matroska Format version :Version 4 / Version 2 File size :1.38 GiB Duration :23 min 35 s Overall bit rate mode :Variable Overall bit rate :8 357 kb/s Movie name :Hunter × Hunter 001: Departure × And × Friends Encoded date :UTC 2016-10-31 05:48:36 Writing application :mkvmerge v9.5.0 ('Quiet Fire') 64bit Writing library :libebml v1.3.4 + libmatroska v1.4.5 Attachments :AlegreyaSansSC-Black.ttf / AlegreyaSansSC-BlackItalic.ttf / ariblk.ttf / ARLRDBD.TTF / GandhiSans-Bold.otf / GandhiSans-BoldItalic.otf / HunterxHunterOP.ttf / Nicotine Stains.ttf / Prototype.ttf Video ID :1 Format :AVC Format/Info :Advanced Video Codec Format profile :High 10@L5.1 Format settings, CABAC :Yes Format settings, ReFrames :15 frames Codec ID :V\_MPEG4/ISO/AVC Duration :23 min 35 s Bit rate :5 473 kb/s Width :1 920 pixels Height :1 080 pixels Display aspect ratio :16:9 Frame rate mode :Constant Frame rate :23.976 (24000/1001) FPS Color space :YUV Chroma subsampling :4:2:0 Bit depth :10 bits Scan type :Progressive Bits/(Pixel\*Frame) :0.110 Stream size :923 MiB (65%) Title :\[Coalgirls\] Writing library :x264 core 125 r2200+677M 3a754e7 Encoding settings :cabac=1 / ref=16 / deblock=1:0:0 / analyse=0x3:0x133 / me=umh / subme=10 / psy=1 / fade\_compensate=0.00 / psy\_rd=1.00:0.00 / mixed\_ref=1 / me\_range=32 / chroma\_me=1 / trellis=2 / 8x8dct=1 / cqm=0 / deadzone=21,11 / fast\_pskip=0 / chroma\_qp\_offset=-4 / threads=9 / lookahead\_threads=1 / sliced\_threads=0 / nr=0 / decimate=0 / interlaced=0 / bluray\_compat=0 / constrained\_intra=0 / fgo=0 / bframes=12 / b\_pyramid=1 / b\_adapt=2 / b\_bias=0 / direct=3 / weightb=1 / open\_gop=0 / weightp=2 / keyint=250 / keyint\_min=23 / scenecut=40 / intra\_refresh=0 / rc\_lookahead=40 / rc=crf / mbtree=1 / crf=16.0000 / qcomp=0.60 / qpmin=10 / qpmax=51 / qpstep=4 / ip\_ratio=1.40 / aq=1:1.00 Language :Japanese Default :Yes Forced :No Audio [\#1](//www.nyaa.se/?page=view&tid=1) ID :2 Format :FLAC Format/Info :Free Lossless Audio Codec Codec ID :A\_FLAC Duration :23 min 35 s Bit rate mode :Variable Bit rate :1 445 kb/s Channel(s) :2 channels Sampling rate :48.0 kHz Frame rate :11.719 FPS (4096 spf) Bit depth :24 bits Stream size :244 MiB (17%) Title :FLAC 2.0 \[Etzimal\] Writing library :libFLAC 1.2.1 (UTC 2007-09-17) Language :English Default :Yes Forced :No Audio [\#2](//www.nyaa.se/?page=view&tid=2) ID :3 Format :FLAC Format/Info :Free Lossless Audio Codec Codec ID :A\_FLAC Duration :23 min 35 s Bit rate mode :Variable Bit rate :1 433 kb/s Channel(s) :2 channels Sampling rate :48.0 kHz Frame rate :11.719 FPS (4096 spf) Bit depth :24 bits Stream size :242 MiB (17%) Title :FLAC 2.0 \[Coalgirls\] Writing library :libFLAC 1.2.1 (UTC 2007-09-17) Language :Japanese Default :No Forced :No Text [\#1](//www.nyaa.se/?page=view&tid=1) ID :4 Format :ASS Codec ID :S\_TEXT/ASS Codec ID/Info :Advanced Sub Station Alpha Duration :23 min 13 s Bit rate :30 b/s Count of elements :80 Compression mode :Lossless Stream size :5.16 KiB (0%) Title :Signs \[Coalgirls\] Language :English Default :Yes Forced :No Text [\#2](//www.nyaa.se/?page=view&tid=2) ID :5 Format :ASS Codec ID :S\_TEXT/ASS Codec ID/Info :Advanced Sub Station Alpha Duration :23 min 27 s Bit rate :114 b/s Count of elements :366 Compression mode :Lossless Stream size :19.7 KiB (0%) Title :Subtitles \[Coalgirls\] Language :Japanese Default :No Forced :No Menu 00:00:00.000 :en:Opening 00:01:19.997 :en:Part A 00:10:54.988 :en:Part B 00:22:00.027 :en:Ending 00:23:20.024 :en:Preview **CTR Releases:** Collecting the best available sources around the internet and packing them up so you don't have to. My releases cater specifically to English audio viewers, though Japanese viewers are of course welcome. More details can be found on the individual release threads or at [my index](http://kametsu.com/topic/54803-the-ctr-index-your-new-home-for-bloated-1080p-dual-audio-releases/) on Kametsu. Enjoy. -ctr

File list

  • Hunter.x.Hunter.2011.Volume.2.1080p-Hi10p.BluRay.FLAC2.0.x264-CTR
    • Hunter.x.Hunter.2011.S01E14.1080p-Hi10p.BluRay.FLAC2.0.x264-CTR.[0E15A94F].mkv (1.4 GiB)
    • Hunter.x.Hunter.2011.S01E15.1080p-Hi10p.BluRay.FLAC2.0.x264-CTR.[0C864866].mkv (1.3 GiB)
    • Hunter.x.Hunter.2011.S01E16.1080p-Hi10p.BluRay.FLAC2.0.x264-CTR.[69620409].mkv (1.3 GiB)
    • Hunter.x.Hunter.2011.S01E17.1080p-Hi10p.BluRay.FLAC2.0.x264-CTR.[C455D0F6].mkv (1.3 GiB)
    • Hunter.x.Hunter.2011.S01E18.1080p-Hi10p.BluRay.FLAC2.0.x264-CTR.[6EF07638].mkv (1.3 GiB)
    • Hunter.x.Hunter.2011.S01E19.1080p-Hi10p.BluRay.FLAC2.0.x264-CTR.[9AEF90D8].mkv (1.1 GiB)
    • Hunter.x.Hunter.2011.S01E20.1080p-Hi10p.BluRay.FLAC2.0.x264-CTR.[2DE54BFA].mkv (1.1 GiB)
    • Hunter.x.Hunter.2011.S01E21.1080p-Hi10p.BluRay.FLAC2.0.x264-CTR.[E03507E2].mkv (1.2 GiB)
    • Hunter.x.Hunter.2011.S01E22.1080p-Hi10p.BluRay.FLAC2.0.x264-CTR.[F3771AF2].mkv (1.2 GiB)
    • Hunter.x.Hunter.2011.S01E23.1080p-Hi10p.BluRay.FLAC2.0.x264-CTR.[FFFFE3B4].mkv (1.3 GiB)
    • Hunter.x.Hunter.2011.S01E24.1080p-Hi10p.BluRay.FLAC2.0.x264-CTR.[4B047974].mkv (1.2 GiB)
    • Hunter.x.Hunter.2011.S01E25.1080p-Hi10p.BluRay.FLAC2.0.x264-CTR.[E5A28C4D].mkv (1.2 GiB)
    • Hunter.x.Hunter.2011.S01E26.Recap.1080p-Hi10p.BluRay.FLAC2.0.x264-CTR.[ABA00F1F].mkv (1.0 GiB)