Sekirei Complete (S1+S2:PE+OVA's) BDrip 1080p Dual-Audio x265

Category:
Date:
2017-02-22 13:04 UTC
Submitter:
Seeders:
15
File size:
8.4 GiB
Completed:
6664
Info hash:
a187a1c152e71ede20f5da8846417a621032777f
Full 1080p HD Funimation Blu-ray rips with Dual-Audio and English subtitles and English subtitles for signs and songs MediaInfo General Complete name : H:\\Sekirei Complete BDrip 1080p Dual-Audio x265\\Season1\\01\_Sekirei\_KDG.mkv Format : Matroska Format version : Version 4 / Version 2 File size : 346 MiB Duration : 23 min 38 s Overall bit rate : 2 047 kb/s Encoded date : UTC 2017-02-22 05:40:37 Writing application : mkvmerge v9.6.0 ('Slave To Your Mind') 64bit Writing library : libebml v1.3.4 + libmatroska v1.4.5 Video ID : 1 Format : HEVC Format/Info : High Efficiency Video Coding Format profile : Main@L4@Main Codec ID : V\_MPEGH/ISO/HEVC Duration : 23 min 38 s Bit rate : 1 261 kb/s Width : 1 920 pixels Height : 1 080 pixels Display aspect ratio : 16:9 Frame rate mode : Constant Frame rate : 29.970 (30000/1001) FPS Color space : YUV Chroma subsampling : 4:2:0 Bit depth : 8 bits Bits/(Pixel\*Frame) : 0.020 Stream size : 213 MiB (62%) Default : Yes Forced : No Audio [\#1](//www.nyaa.se/?page=view&tid=1) ID : 2 Format : AC-3 Format/Info : Audio Coding 3 Mode extension : CM (complete main) Format settings, Endianness : Big Codec ID : A\_AC3 Duration : 23 min 38 s Bit rate mode : Constant Bit rate : 384 kb/s Channel(s) : 6 channels Channel positions : Front: L C R, Side: L R, LFE Sampling rate : 48.0 kHz Frame rate : 31.250 FPS (1536 spf) Bit depth : 16 bits Compression mode : Lossy Stream size : 64.9 MiB (19%) Language : English Default : No Forced : No Audio [\#2](//www.nyaa.se/?page=view&tid=2) ID : 3 Format : AC-3 Format/Info : Audio Coding 3 Mode extension : CM (complete main) Format settings, Endianness : Big Codec ID : A\_AC3 Duration : 23 min 38 s Bit rate mode : Constant Bit rate : 384 kb/s Channel(s) : 2 channels Channel positions : Front: L R Sampling rate : 48.0 kHz Frame rate : 31.250 FPS (1536 spf) Bit depth : 16 bits Compression mode : Lossy Stream size : 64.9 MiB (19%) Language : Japanese Default : No Forced : No Text [\#1](//www.nyaa.se/?page=view&tid=1) ID : 4 Format : PGS Muxing mode : zlib Codec ID : S\_HDMV/PGS Codec ID/Info : Picture based subtitle format used on BDs/HD-DVDs Duration : 23 min 29 s Bit rate : 14.1 kb/s Count of elements : 764 Stream size : 2.37 MiB (1%) Language : English Default : No Forced : No Text [\#2](//www.nyaa.se/?page=view&tid=2) ID : 5 Format : PGS Muxing mode : zlib Codec ID : S\_HDMV/PGS Codec ID/Info : Picture based subtitle format used on BDs/HD-DVDs Duration : 21 min 54 s Bit rate : 1 108 b/s Count of elements : 50 Stream size : 178 KiB (0%) Title : Signs Language : English Default : Yes Forced : No Menu 00:00:00.000 : en:00:00:00.000 00:01:29.022 : en:00:01:29.022 00:02:59.046 : en:00:02:59.046 00:11:21.080 : en:00:11:21.080 00:21:45.404 : en:00:21:45.404 00:23:17.062 : en:00:23:17.062

File list

  • Sekirei Complete BDrip 1080p Dual-Audio x265
    • Season1
      • 01_Sekirei_KDG.mkv (346.0 MiB)
      • 02_The Door to the New Residence_KDG.mkv (318.7 MiB)
      • 03_The Green Girl_KDG.mkv (356.1 MiB)
      • 04_The Strange Tale of Maison Izumo_KDG.mkv (332.5 MiB)
      • 05_The Strange Tale of Maison Izumo_KDG.mkv (393.0 MiB)
      • 06_Maison Izumo Flower War_KDG.mkv (341.8 MiB)
      • 07_The Black Sekirei_KDG.mkv (346.7 MiB)
      • 08_The Closed Capital_KDG.mkv (348.3 MiB)
      • 09_The Veil and the Wind_KDG.mkv (341.1 MiB)
      • 10_The Night Before the Escape_KDG.mkv (342.8 MiB)
      • 11_The Sekirei Symbol Disappears_KDG.mkv (344.4 MiB)
      • 12_The Sekirei of Fate_KDG.mkv (338.5 MiB)
      • OVA_Kusano's First Shopping Trip_KDG.mkv (117.4 MiB)
    • Season2_Pure Engagement
      • 00_OVA_Two-Topic Gossip_KDG.mkv (376.8 MiB)
      • 01_Silent Omen_KDG.mkv (321.5 MiB)
      • 02_The Wind Blows_KDG.mkv (311.0 MiB)
      • 03_The Wind's Answer_KDG.mkv (319.3 MiB)
      • 04_The Final Feather_KDG.mkv (286.5 MiB)
      • 05_The Sekirei of Flame_KDG.mkv (296.0 MiB)
      • 06_Words of Binding_KDG.mkv (335.8 MiB)
      • 07_A Faraway Tale_KDG.mkv (289.7 MiB)
      • 08_Kusa's Play_KDG.mkv (300.3 MiB)
      • 09_A Multitude of Bonds_KDG.mkv (312.8 MiB)
      • 10_Far-Reaching Sky_KDG.mkv (301.1 MiB)
      • 11_Preparations for the Festival_KDG.mkv (301.3 MiB)
      • 12_Tower of Confusion_KDG.mkv (336.8 MiB)
      • 13_Bonds of Truth_KDG.mkv (291.0 MiB)
Any chance of uploading the actual Japanese BDs instead?
why always this shit dual -audio crap--------- but thanks for this work....
@MasterMind because you have people like myself who enjoy both sides of the spectrum

D44

User
PGS subs and dual audio? Bleh...
@mastermind shut the hell up if you don't like stream it legally or buy the blu ray if not once again shut the f up okay.
Thank you ♥❤?❤️??
Is this uncensored? Edit: It is
I can't believe you did an encode for free for people who like either dub or sub and they could just mux out what they don't like but they are too lazy. What a jerk!