Ghost in the Shell Stand Alone Complex S01 1080p Main10 BluRay DD5.1 x265 [CTR] (English Dubbed Dual Audio)

Category:
Date:
2017-01-06 14:30 UTC
Submitter:
Seeders:
21
File size:
29.8 GiB
Completed:
1488
Info hash:
a0a7a47b38e73bace53c29bb8fd07ff7448d0e92
![Image](https://i.gyazo.com/d324a1e85d3ae84937f493bb444b00ed.png) **[Season 2➙](https://www.nyaa.se/?page=view&tid=912963)** **[Release Thread](http://kametsu.com/topic/56800-megatorrent-ctr-ghost-in-the-shell-stand-alone-complex-bd-1080p-main10-x265flac-51-dual-audio-cyberpunk-masterpiece/) | [CTR Release Index](http://kametsu.com/topic/54803-the-ctr-index-your-new-home-for-bloated-1080p-dual-audio-releases/)** _~cyberpunk masterpiece~_ ![Image](http://kametsu.com/images/downloads/info.png) `<br></br>Video Track: 1080p-Main10p (VCB-S/philosophy-raws)<br></br><br></br>Audio Track 1 (Default): English 5.1AC3 (VCB-S/philosophy-raws)<br></br>Audio Track 2: Japanese 5.1 5.1FLAC (VCB-S/philosophy-raws)<br></br><br></br>Subtitle Track 1 (Default): English Signs(.ASS) (OZC)<br></br>Subtitle Track 2: English Dialogue (.ASS) (OZC)<br></br><br></br>Chapters<br></br>` I love this show. Realistic, insightful, actually good action scenes, mature and well-written throughout. Not perfect, sure, but what is? Still one of the all-time greats. For this release, I had to put together some subs after seeing the improvements to be found in VCB-S and philosophy-raws newer encode. As such, this is a combination of their x265 Main10 release with OZC's signs and subtitles. Simple stuff, but worth it for a show this good. Quick notes to be had: There is no lossless audio to be found for the English track. VCB/philosophy included the source AC3 5.1, which I chose over OZC's reencoded AAC set. General Unique ID : 176381381797397151452382165532589588534 (0x84B1D18824286BD483A0C71501568036) Complete name : S:\\Anime\\Ghost in the Shell - Stand Alone Complex\\Ghost.in.the.Shell.Stand.Alone.Complex.S01.1080p-Main10.BluRay.DD5.1.x265-CTR\\Ghost.in.the.Shell.Stand.Alone.Complex.S01E01.1080p-Main10.BluRay.DD5.1.x265-CTR.\[2C27DC23\].mkv Format : Matroska Format version : Version 4 / Version 2 File size : 1.31 GiB Duration : 24 min 30 s Overall bit rate mode : Variable Overall bit rate : 7 632 kb/s Encoded date : UTC 2017-01-04 01:39:31 Writing application : mkvmerge v9.2.0 ('Photograph') 64bit Writing library : libebml v1.3.3 + libmatroska v1.4.4 Attachments : BellGothicStd-Black.otf / BellGothicStd-Bold.otf / Brianne\_s\_hand.ttf / ITCKabelStd-Medium.otf / kkberktp.ttf / POORICH.TTF / X-SCALE.TTF / YOUTHAN\_.ttf / YOUTHANI.ttf / YOUTTX\_\_.ttf Video ID : 1 Format : HEVC Format/Info : High Efficiency Video Coding Format profile : Main 10@L5@High Codec ID : V\_MPEGH/ISO/HEVC Duration : 24 min 30 s Bit rate : 5 675 kb/s Width : 1 920 pixels Height : 1 040 pixels Display aspect ratio : 1.85:1 Frame rate mode : Variable Frame rate : 24.343 FPS Original frame rate : 29.970 (30000/1001) FPS Color space : YUV Chroma subsampling : 4:2:0 Bit depth : 10 bits Bits/(Pixel\*Frame) : 0.117 Stream size : 995 MiB (74%) Title : \[VCB-Studio & philosophy-raws\] Writing library : x265 2.0+1-6a9b6a828f79:\[Windows\]\[MSVC 1900\]\[64 bit\] 10bit Encoding settings : wpp / ctu=32 / min-cu-size=8 / max-tu-size=32 / tu-intra-depth=3 / tu-inter-depth=3 / me=3 / subme=4 / merange=44 / rect / no-amp / max-merge=4 / temporal-mvp / no-early-skip / rskip / rdpenalty=0 / no-tskip / no-tskip-fast / no-strong-intra-smoothing / no-lossless / no-cu-lossless / no-constrained-intra / no-fast-intra / no-open-gop / no-temporal-layers / interlace=0 / keyint=480 / min-keyint=1 / scenecut=40 / rc-lookahead=72 / lookahead-slices=0 / bframes=8 / bframe-bias=0 / b-adapt=2 / ref=6 / limit-refs=1 / limit-modes / weightp / weightb / aq-mode=2 / qg-size=32 / aq-strength=0.90 / cbqpoffs=-2 / crqpoffs=-2 / rd=6 / psy-rd=2.00 / rdoq-level=2 / psy-rdoq=3.00 / no-rd-refine / signhide / deblock=-1:-1 / no-sao / no-sao-non-deblock / b-pyramid / cutree / no-intra-refresh / rc=crf / crf=16.0 / qcomp=0.65 / qpmin=0 / qpmax=51 / qpstep=4 / vbv-maxrate=30000 / vbv-bufsize=40000 / crf-max=0.0 / ipratio=1.40 / pbratio=1.20 Language : Japanese Default : Yes Forced : No Color range : Limited Matrix coefficients : BT.709 Audio [\#1](//www.nyaa.se/?page=view&tid=1) ID : 2 Format : AC-3 Format/Info : Audio Coding 3 Mode extension : CM (complete main) Format settings, Endianness : Big Codec ID : A\_AC3 Duration : 24 min 30 s Bit rate mode : Constant Bit rate : 640 kb/s Channel(s) : 6 channels Channel positions : Front: L C R, Side: L R, LFE Sampling rate : 48.0 kHz Frame rate : 31.250 FPS (1536 spf) Compression mode : Lossy Stream size : 112 MiB (8%) Title : AC3 5.1 \[VCB-philosophy\] Language : English Default : No Forced : No Audio [\#2](//www.nyaa.se/?page=view&tid=2) ID : 3 Format : FLAC Format/Info : Free Lossless Audio Codec Codec ID : A\_FLAC Duration : 24 min 30 s Bit rate mode : Variable Bit rate : 1 312 kb/s Channel(s) : 6 channels Channel positions : Front: L C R, Side: L R, LFE Sampling rate : 48.0 kHz Frame rate : 11.719 FPS (4096 spf) Bit depth : 16 bits Stream size : 230 MiB (17%) Title : FLAC 5.1 \[VCB-philosophy\] Writing library : libFLAC 1.3.1 (UTC 2014-11-25) Language : Japanese Default : Yes Forced : No Text [\#1](//www.nyaa.se/?page=view&tid=1) ID : 4 Format : ASS Codec ID : S\_TEXT/ASS Codec ID/Info : Advanced Sub Station Alpha Duration : 24 min 15 s Bit rate : 19 b/s Count of elements : 40 Compression mode : Lossless Stream size : 3.47 KiB (0%) Title : Signs \[OZC\] Language : English Default : Yes Forced : No Text [\#2](//www.nyaa.se/?page=view&tid=2) ID : 5 Format : ASS Codec ID : S\_TEXT/ASS Codec ID/Info : Advanced Sub Station Alpha Duration : 24 min 15 s Bit rate : 123 b/s Count of elements : 278 Compression mode : Lossless Stream size : 22.0 KiB (0%) Title : Subtitles \[OZC\] Language : Japanese Default : No Forced : No Menu 00:00:00.000 : en:Chapter 01 00:01:30.090 : en:Chapter 02 00:10:03.069 : en:Chapter 03 00:23:00.179 : en:Chapter 04 **CTR Releases:** Collecting the best available sources around the internet and packing them up so you don't have to. My releases cater specifically to English audio viewers, though Japanese viewers are of course welcome. More details can be found on the individual release threads or at [my index](http://kametsu.com/topic/54803-the-ctr-index-your-new-home-for-bloated-1080p-dual-audio-releases/) on Kametsu, where you can also pitch me on whatever shows I go after next. Enjoy. -ctr

File list

  • Ghost.in.the.Shell.Stand.Alone.Complex.S01.1080p-Main10.BluRay.DD5.1.x265-CTR
    • Ghost.in.the.Shell.Stand.Alone.Complex.S01E01.1080p-Main10.BluRay.DD5.1.x265-CTR.[2C27DC23].mkv (1.3 GiB)
    • Ghost.in.the.Shell.Stand.Alone.Complex.S01E02.1080p-Main10.BluRay.DD5.1.x265-CTR.[75D4EE1C].mkv (1.3 GiB)
    • Ghost.in.the.Shell.Stand.Alone.Complex.S01E03.1080p-Main10.BluRay.DD5.1.x265-CTR.[5CFD149B].mkv (1.1 GiB)
    • Ghost.in.the.Shell.Stand.Alone.Complex.S01E04.1080p-Main10.BluRay.DD5.1.x265-CTR.[57779590].mkv (1.2 GiB)
    • Ghost.in.the.Shell.Stand.Alone.Complex.S01E05.1080p-Main10.BluRay.DD5.1.x265-CTR.[F25DB040].mkv (1.3 GiB)
    • Ghost.in.the.Shell.Stand.Alone.Complex.S01E06.1080p-Main10.BluRay.DD5.1.x265-CTR.[511E9D04].mkv (1.1 GiB)
    • Ghost.in.the.Shell.Stand.Alone.Complex.S01E07.1080p-Main10.BluRay.DD5.1.x265-CTR.[9813F5AC].mkv (1.2 GiB)
    • Ghost.in.the.Shell.Stand.Alone.Complex.S01E08.1080p-Main10.BluRay.DD5.1.x265-CTR.[D8DE1890].mkv (1.1 GiB)
    • Ghost.in.the.Shell.Stand.Alone.Complex.S01E09.1080p-Main10.BluRay.DD5.1.x265-CTR.[320F46DE].mkv (1.5 GiB)
    • Ghost.in.the.Shell.Stand.Alone.Complex.S01E10.1080p-Main10.BluRay.DD5.1.x265-CTR.[A2318978].mkv (1.2 GiB)
    • Ghost.in.the.Shell.Stand.Alone.Complex.S01E11.1080p-Main10.BluRay.DD5.1.x265-CTR.[0EDDCC79].mkv (1.0 GiB)
    • Ghost.in.the.Shell.Stand.Alone.Complex.S01E12.1080p-Main10.BluRay.DD5.1.x265-CTR.[F81045D4].mkv (1.2 GiB)
    • Ghost.in.the.Shell.Stand.Alone.Complex.S01E13.1080p-Main10.BluRay.DD5.1.x265-CTR.[5D98EEEF].mkv (1.2 GiB)
    • Ghost.in.the.Shell.Stand.Alone.Complex.S01E14.1080p-Main10.BluRay.DD5.1.x265-CTR.[C3DCE9CE].mkv (1.2 GiB)
    • Ghost.in.the.Shell.Stand.Alone.Complex.S01E15.1080p-Main10.BluRay.DD5.1.x265-CTR.[8739FFB7].mkv (1.3 GiB)
    • Ghost.in.the.Shell.Stand.Alone.Complex.S01E16.1080p-Main10.BluRay.DD5.1.x265-CTR.[7DB00481].mkv (1.1 GiB)
    • Ghost.in.the.Shell.Stand.Alone.Complex.S01E17.1080p-Main10.BluRay.DD5.1.x265-CTR.[A379BD05].mkv (941.2 MiB)
    • Ghost.in.the.Shell.Stand.Alone.Complex.S01E18.1080p-Main10.BluRay.DD5.1.x265-CTR.[14C151F4].mkv (956.5 MiB)
    • Ghost.in.the.Shell.Stand.Alone.Complex.S01E19.1080p-Main10.BluRay.DD5.1.x265-CTR.[F2BF26F4].mkv (1020.7 MiB)
    • Ghost.in.the.Shell.Stand.Alone.Complex.S01E20.1080p-Main10.BluRay.DD5.1.x265-CTR.[6BB646C4].mkv (1.1 GiB)
    • Ghost.in.the.Shell.Stand.Alone.Complex.S01E21.1080p-Main10.BluRay.DD5.1.x265-CTR.[150FDDCF].mkv (1.1 GiB)
    • Ghost.in.the.Shell.Stand.Alone.Complex.S01E22.1080p-Main10.BluRay.DD5.1.x265-CTR.[31C0218A].mkv (1.0 GiB)
    • Ghost.in.the.Shell.Stand.Alone.Complex.S01E23.1080p-Main10.BluRay.DD5.1.x265-CTR.[3344E30E].mkv (1.1 GiB)
    • Ghost.in.the.Shell.Stand.Alone.Complex.S01E24.1080p-Main10.BluRay.DD5.1.x265-CTR.[E7317EFD].mkv (1.0 GiB)
    • Ghost.in.the.Shell.Stand.Alone.Complex.S01E25.1080p-Main10.BluRay.DD5.1.x265-CTR.[77B9411A].mkv (1.3 GiB)
    • Ghost.in.the.Shell.Stand.Alone.Complex.S01E26.1080p-Main10.BluRay.DD5.1.x265-CTR.[9396CD41].mkv (1.0 GiB)
Definitely the best version of this series that I've found.
This is amazing. You are amazing. I appreciate you :)