My Love Story!! S01 720p Hi10p BluRay AAC2.0 x264 [CTR] (Ore Monogatari) (English Dubbed Dual Audio)

Category:
Date:
2017-01-05 12:16 UTC
Submitter:
Seeders:
2
File size:
9.4 GiB
Completed:
159
Info hash:
0ae72a2532c3529725449440cc381310350192cd
![Image](https://i.gyazo.com/10dd784ece62b2d95a033d22b6cf159c.png) **[←1080p Option](https://www.nyaa.se/?page=view&tid=886412)** **[Release Thread](http://kametsu.com/topic/56790-megatorrent-ctr-my-love-story-ore-monogatari-bd-720p-10bit-1080p-10-bitaac-20-flac-20-dual-audio-a-quick-request-to-tide-everyone-over/) | [CTR Release Index](http://kametsu.com/topic/54803-the-ctr-index-your-new-home-for-bloated-1080p-dual-audio-releases/)** _~filling old requests~_ ![Image](http://kametsu.com/images/downloads/info.png) `<br></br>Video Track: 720p-Hi10p | 1080p-Hi10p (FFF)<br></br><br></br>Audio Track 1 (Default): English 2.0 AAC | 2.0 FLAC (CTR)<br></br>Audio Track 2: Japanese 2.0 AAC | 2.0 FLAC (FFF)<br></br><br></br>Subtitle Track 1 (Default): English Signs(.ASS) (FFF)<br></br>Subtitle Track 2: English Dialogue (.ASS) (FFF)<br></br><br></br>Chapters<br></br>` Super simple. FFF signs/subs, new USBD audio strapped in. That's it. I've got nothing else to write here. Feels too short though. Something's wrong. I didn't miss anything? hm. Oh well. I wonder if the guy who made this request will even notice, it was months ago. enjoy. General Unique ID : 214290340638256448086549902740615686411 (0xA136D1818945ED9CAA07B97D0F01690B) Complete name : S:\\Anime\\My Love Story!!\\Season 1\\My.Love.Story!!.S01.720p-Hi10p.BluRay.AAC2.0.x264-CTR\\My.Love.Story!!.S01E01.720p-Hi10p.BluRay.AAC2.0.x264-CTR.\[646E4FCD\].mkv Format : Matroska Format version : Version 4 / Version 2 File size : 512 MiB Duration : 22 min 56 s Overall bit rate : 3 120 kb/s Encoded date : UTC 2017-01-04 07:06:07 Writing application : mkvmerge v9.2.0 ('Photograph') 64bit Writing library : libebml v1.3.3 + libmatroska v1.4.4 Attachments : CHINELABRUSH.TTF / corbel.ttf / FOTKAFUTECHNOSTDSTRP-U.OTF / HUMANASANSMDITCTTMEDIUM.TTF / PICKAX.TTF / QUAYSANSMDITCTT.TTF / QUAYSANSMDITCTTITALIC.TTF / ROBOTO-BOLD.TTF / BEEMARKERINK.TTF / BLOKLETTERSVILTSTIFTFXD-VILTSTIFT.TTF / BRANDON-TEXTBLACK.TTF / BRUSH-HYOUKA.TTF / BRUSHTYPE-SEMIBOLD.TTF Video ID : 1 Format : AVC Format/Info : Advanced Video Codec Format profile : High 10@L5 Format settings, CABAC : Yes Format settings, ReFrames : 16 frames Codec ID : V\_MPEG4/ISO/AVC Duration : 22 min 55 s Bit rate : 2 662 kb/s Width : 1 280 pixels Height : 720 pixels Display aspect ratio : 16:9 Frame rate mode : Constant Frame rate : 23.976 (24000/1001) FPS Color space : YUV Chroma subsampling : 4:2:0 Bit depth : 10 bits Scan type : Progressive Bits/(Pixel\*Frame) : 0.120 Stream size : 436 MiB (85%) Title : 10bit H.264 - 720p Writing library : x264 core 148 r2665kMod a01e339 Encoding settings : cabac=1 / ref=16 / deblock=1:1:1 / analyse=0x3:0x133 / me=umh / subme=11 / psy=1 / fade\_compensate=0.00 / psy\_rd=0.68:0.00 / mixed\_ref=1 / me\_range=24 / chroma\_me=1 / trellis=2 / 8x8dct=1 / cqm=0 / deadzone=21,11 / fast\_pskip=0 / chroma\_qp\_offset=-2 / threads=22 / lookahead\_threads=5 / sliced\_threads=0 / nr=0 / decimate=1 / interlaced=0 / bluray\_compat=0 / constrained\_intra=0 / fgo=0 / bframes=16 / b\_pyramid=2 / b\_adapt=2 / b\_bias=0 / direct=3 / weightb=1 / open\_gop=0 / weightp=2 / keyint=250 / keyint\_min=23 / scenecut=40 / intra\_refresh=0 / rc\_lookahead=250 / rc=crf / mbtree=1 / crf=14.0000 / qcomp=0.80 / qpmin=0 / qpmax=81 / qpstep=4 / ip\_ratio=1.40 / aq=3:0.80 Language : Japanese Default : Yes Forced : No Color range : Limited Color primaries : BT.709 Transfer characteristics : BT.709 Matrix coefficients : BT.709 Audio [\#1](//www.nyaa.se/?page=view&tid=1) ID : 2 Format : AAC Format/Info : Advanced Audio Codec Format profile : LC Codec ID : A\_AAC Duration : 22 min 56 s Bit rate : 149 kb/s Channel(s) : 2 channels Channel positions : Front: L R Sampling rate : 48.0 kHz Frame rate : 46.875 FPS (1024 spf) Compression mode : Lossy Delay relative to video : 20 ms Stream size : 24.4 MiB (5%) Title : e Language : English Default : Yes Forced : No Audio [\#2](//www.nyaa.se/?page=view&tid=2) ID : 3 Format : AAC Format/Info : Advanced Audio Codec Format profile : LC Codec ID : A\_AAC Duration : 22 min 54 s Bit rate : 233 kb/s Channel(s) : 2 channels Channel positions : Front: L R Sampling rate : 48.0 kHz Frame rate : 46.875 FPS (1024 spf) Compression mode : Lossy Delay relative to video : 20 ms Stream size : 38.3 MiB (7%) Title : 2.0 AAC Language : Japanese Default : No Forced : No Text [\#1](//www.nyaa.se/?page=view&tid=1) ID : 4 Format : ASS Codec ID : S\_TEXT/ASS Codec ID/Info : Advanced Sub Station Alpha Duration : 22 min 39 s Bit rate : 33.1 kb/s Count of elements : 2418 Compression mode : Lossless Stream size : 5.36 MiB (1%) Title : Signs \[FFF\] Language : English Default : Yes Forced : No Text [\#2](//www.nyaa.se/?page=view&tid=2) ID : 5 Format : ASS Codec ID : S\_TEXT/ASS Codec ID/Info : Advanced Sub Station Alpha Duration : 22 min 46 s Bit rate : 33.0 kb/s Count of elements : 2796 Compression mode : Lossless Stream size : 5.38 MiB (1%) Title : Subtitles \[FFF\] Language : Japanese Default : No Forced : No Menu 00:00:00.000 : en:Prologue 00:01:20.998 : en:Opening 00:02:51.045 : en:Episode 00:21:35.002 : en:Ending 00:22:45.029 : en:Preview **CTR Releases:** Collecting the best available sources around the internet and packing them up so you don't have to. My releases cater specifically to English audio viewers, though Japanese viewers are of course welcome. More details can be found on the individual release threads or at [my index](http://kametsu.com/topic/54803-the-ctr-index-your-new-home-for-bloated-1080p-dual-audio-releases/) on Kametsu, where you can also pitch me on whatever shows I go after next. Enjoy. -ctr

File list

  • My.Love.Story!!.S01.720p-Hi10p.BluRay.AAC2.0.x264-CTR
    • My.Love.Story!!.S01E01.720p-Hi10p.BluRay.AAC2.0.x264-CTR.[646E4FCD].mkv (512.0 MiB)
    • My.Love.Story!!.S01E02.720p-Hi10p.BluRay.AAC2.0.x264-CTR.[1758F655].mkv (449.1 MiB)
    • My.Love.Story!!.S01E03.720p-Hi10p.BluRay.AAC2.0.x264-CTR.[E9307EF1].mkv (442.9 MiB)
    • My.Love.Story!!.S01E04.720p-Hi10p.BluRay.AAC2.0.x264-CTR.[95C34E9C].mkv (494.5 MiB)
    • My.Love.Story!!.S01E05.720p-Hi10p.BluRay.AAC2.0.x264-CTR.[DB849B0D].mkv (378.0 MiB)
    • My.Love.Story!!.S01E06.720p-Hi10p.BluRay.AAC2.0.x264-CTR.[F917FAA4].mkv (350.5 MiB)
    • My.Love.Story!!.S01E07.720p-Hi10p.BluRay.AAC2.0.x264-CTR.[9AA7214B].mkv (456.9 MiB)
    • My.Love.Story!!.S01E08.720p-Hi10p.BluRay.AAC2.0.x264-CTR.[12869636].mkv (343.3 MiB)
    • My.Love.Story!!.S01E09.720p-Hi10p.BluRay.AAC2.0.x264-CTR.[F50136ED].mkv (391.2 MiB)
    • My.Love.Story!!.S01E10.720p-Hi10p.BluRay.AAC2.0.x264-CTR.[1975C4EE].mkv (384.1 MiB)
    • My.Love.Story!!.S01E11.720p-Hi10p.BluRay.AAC2.0.x264-CTR.[4BB79DB1].mkv (509.4 MiB)
    • My.Love.Story!!.S01E12.720p-Hi10p.BluRay.AAC2.0.x264-CTR.[E7FE3C42].mkv (384.3 MiB)
    • My.Love.Story!!.S01E13.720p-Hi10p.BluRay.AAC2.0.x264-CTR.[5B60EAC8].mkv (343.8 MiB)
    • My.Love.Story!!.S01E14.720p-Hi10p.BluRay.AAC2.0.x264-CTR.[99B039ED].mkv (406.4 MiB)
    • My.Love.Story!!.S01E15.720p-Hi10p.BluRay.AAC2.0.x264-CTR.[459ACB8A].mkv (426.7 MiB)
    • My.Love.Story!!.S01E16.720p-Hi10p.BluRay.AAC2.0.x264-CTR.[53D06D8F].mkv (424.1 MiB)
    • My.Love.Story!!.S01E17.720p-Hi10p.BluRay.AAC2.0.x264-CTR.[91979E17].mkv (358.2 MiB)
    • My.Love.Story!!.S01E18.720p-Hi10p.BluRay.AAC2.0.x264-CTR.[BFCF678A].mkv (383.6 MiB)
    • My.Love.Story!!.S01E19.720p-Hi10p.BluRay.AAC2.0.x264-CTR.[DCBC2C6E].mkv (341.7 MiB)
    • My.Love.Story!!.S01E20.720p-Hi10p.BluRay.AAC2.0.x264-CTR.[65B1ACFD].mkv (370.3 MiB)
    • My.Love.Story!!.S01E21.720p-Hi10p.BluRay.AAC2.0.x264-CTR.[CA5EA3B7].mkv (333.7 MiB)
    • My.Love.Story!!.S01E22.720p-Hi10p.BluRay.AAC2.0.x264-CTR.[4814810A].mkv (386.4 MiB)
    • My.Love.Story!!.S01E23.720p-Hi10p.BluRay.AAC2.0.x264-CTR.[B12B8883].mkv (400.4 MiB)
    • My.Love.Story!!.S01E24.720p-Hi10p.BluRay.AAC2.0.x264-CTR.[A2B61A42].mkv (400.5 MiB)