My Love Story!! S01 1080p Hi10p BluRay FLAC2.0 x264 [CTR] (Ore Monogatari) (English Dubbed Dual Audio)

Category:
Date:
2017-01-05 12:16 UTC
Submitter:
Seeders:
0
File size:
27.9 GiB
Completed:
9
Info hash:
db8aad50574ccac37c4874b2ece4ca3b74ae0e96
![Image](https://i.gyazo.com/10dd784ece62b2d95a033d22b6cf159c.png) **[720p Optionâž™](https://www.nyaa.se/?page=view&tid=886414)** **[Release Thread](http://kametsu.com/topic/56790-megatorrent-ctr-my-love-story-ore-monogatari-bd-720p-10bit-1080p-10-bitaac-20-flac-20-dual-audio-a-quick-request-to-tide-everyone-over/) | [CTR Release Index](http://kametsu.com/topic/54803-the-ctr-index-your-new-home-for-bloated-1080p-dual-audio-releases/)** _~filling old requests~_ ![Image](http://kametsu.com/images/downloads/info.png) `<br></br>Video Track: 720p-Hi10p | 1080p-Hi10p (FFF)<br></br><br></br>Audio Track 1 (Default): English 2.0 AAC | 2.0 FLAC (CTR)<br></br>Audio Track 2: Japanese 2.0 AAC | 2.0 FLAC (FFF)<br></br><br></br>Subtitle Track 1 (Default): English Signs (.ASS) (FFF)<br></br>Subtitle Track 2: English Dialogue (.ASS) (FFF)<br></br><br></br>Chapters<br></br>` Super simple. FFF signs/subs, new USBD audio strapped in. That's it. I've got nothing else to write here. Feels too short though. Something's wrong. I didn't miss anything? hm. Oh well. I wonder if the guy who made this request will even notice, it was months ago. enjoy. General Unique ID : 191148389465693519670844674306575950413 (0x8FCDD738BA2511679F21DAB66573E24D) Complete name : S:\\Anime\\My Love Story!!\\Season 1\\My.Love.Story!!.S01.1080p-Hi10p.BluRay.FLAC2.0.x264-CTR\\My.Love.Story!!.S01E01.1080p-Hi10p.BluRay.FLAC2.0.x264-CTR.\[4C7367C4\].mkv Format : Matroska Format version : Version 4 / Version 2 File size : 1.43 GiB Duration : 22 min 56 s Overall bit rate mode : Variable Overall bit rate : 8 938 kb/s Encoded date : UTC 2017-01-04 05:09:56 Writing application : mkvmerge v9.2.0 ('Photograph') 64bit Writing library : libebml v1.3.3 + libmatroska v1.4.4 Attachments : CHINELABRUSH.TTF / corbel.ttf / FOTKAFUTECHNOSTDSTRP-U.OTF / HUMANASANSMDITCTTMEDIUM.TTF / PICKAX.TTF / QUAYSANSMDITCTT.TTF / QUAYSANSMDITCTTITALIC.TTF / ROBOTO-BOLD.TTF / BEEMARKERINK.TTF / BLOKLETTERSVILTSTIFTFXD-VILTSTIFT.TTF / BRANDON-TEXTBLACK.TTF / BRUSH-HYOUKA.TTF / BRUSHTYPE-SEMIBOLD.TTF Video ID : 1 Format : AVC Format/Info : Advanced Video Codec Format profile : High 10@L5.1 Format settings, CABAC : Yes Format settings, ReFrames : 16 frames Codec ID : V\_MPEG4/ISO/AVC Duration : 22 min 55 s Bit rate : 6 935 kb/s Width : 1 920 pixels Height : 1 080 pixels Display aspect ratio : 16:9 Frame rate mode : Constant Frame rate : 23.976 (24000/1001) FPS Color space : YUV Chroma subsampling : 4:2:0 Bit depth : 10 bits Scan type : Progressive Bits/(Pixel\*Frame) : 0.139 Stream size : 1.11 GiB (78%) Title : \[FFF\] Writing library : x264 core 148 r2665kMod a01e339 Encoding settings : cabac=1 / ref=16 / deblock=1:1:1 / analyse=0x3:0x133 / me=umh / subme=11 / psy=1 / fade\_compensate=0.00 / psy\_rd=0.68:0.00 / mixed\_ref=1 / me\_range=24 / chroma\_me=1 / trellis=2 / 8x8dct=1 / cqm=0 / deadzone=21,11 / fast\_pskip=0 / chroma\_qp\_offset=-2 / threads=24 / lookahead\_threads=6 / sliced\_threads=0 / nr=0 / decimate=1 / interlaced=0 / bluray\_compat=0 / constrained\_intra=0 / fgo=0 / bframes=16 / b\_pyramid=2 / b\_adapt=2 / b\_bias=0 / direct=3 / weightb=1 / open\_gop=0 / weightp=2 / keyint=250 / keyint\_min=23 / scenecut=40 / intra\_refresh=0 / rc\_lookahead=250 / rc=crf / mbtree=1 / crf=14.0000 / qcomp=0.80 / qpmin=0 / qpmax=81 / qpstep=4 / ip\_ratio=1.40 / aq=3:0.80 Language : Japanese Default : Yes Forced : No Color range : Limited Color primaries : BT.709 Transfer characteristics : BT.709 Matrix coefficients : BT.709 Audio [\#1](//www.nyaa.se/?page=view&tid=1) ID : 2 Format : FLAC Format/Info : Free Lossless Audio Codec Codec ID : A\_FLAC Duration : 22 min 56 s Bit rate mode : Variable Bit rate : 595 kb/s Channel(s) : 2 channels Channel positions : Front: L R Sampling rate : 48.0 kHz Frame rate : 11.719 FPS (4096 spf) Bit depth : 16 bits Stream size : 97.7 MiB (7%) Title : FLAC 2.0 \[CTR\] Writing library : libFLAC 1.2.1 (UTC 2007-09-17) Language : English Default : Yes Forced : No Audio [\#2](//www.nyaa.se/?page=view&tid=2) ID : 3 Format : FLAC Format/Info : Free Lossless Audio Codec Codec ID : A\_FLAC Duration : 22 min 55 s Bit rate mode : Variable Bit rate : 1 338 kb/s Channel(s) : 2 channels Channel positions : Front: L R Sampling rate : 48.0 kHz Frame rate : 11.719 FPS (4096 spf) Bit depth : 24 bits Stream size : 219 MiB (15%) Title : FLAC 2.0 \[FFF\] Writing library : libFLAC 1.3.1 (UTC 2014-11-25) Language : Japanese Default : No Forced : No Text [\#1](//www.nyaa.se/?page=view&tid=1) ID : 4 Format : ASS Codec ID : S\_TEXT/ASS Codec ID/Info : Advanced Sub Station Alpha Duration : 22 min 39 s Bit rate : 33.1 kb/s Count of elements : 2418 Compression mode : Lossless Stream size : 5.36 MiB (0%) Title : Signs \[FFF\] Language : English Default : Yes Forced : No Text [\#2](//www.nyaa.se/?page=view&tid=2) ID : 5 Format : ASS Codec ID : S\_TEXT/ASS Codec ID/Info : Advanced Sub Station Alpha Duration : 22 min 46 s Bit rate : 33.0 kb/s Count of elements : 2796 Compression mode : Lossless Stream size : 5.38 MiB (0%) Title : Subtitles \[FFF\] Language : Japanese Default : No Forced : No Menu 00:00:00.000 : en:Prologue 00:01:20.998 : en:Opening 00:02:51.045 : en:Episode 00:21:35.002 : en:Ending 00:22:45.029 : en:Preview **CTR Releases:** Collecting the best available sources around the internet and packing them up so you don't have to. My releases cater specifically to English audio viewers, though Japanese viewers are of course welcome. More details can be found on the individual release threads or at [my index](http://kametsu.com/topic/54803-the-ctr-index-your-new-home-for-bloated-1080p-dual-audio-releases/) on Kametsu, where you can also pitch me on whatever shows I go after next. Enjoy. -ctr

File list

  • My.Love.Story!!.S01.1080p-Hi10p.BluRay.FLAC2.0.x264-CTR
    • My.Love.Story!!.S01E01.1080p-Hi10p.BluRay.FLAC2.0.x264-CTR.[4C7367C4].mkv (1.4 GiB)
    • My.Love.Story!!.S01E02.1080p-Hi10p.BluRay.FLAC2.0.x264-CTR.[963EBDBA].mkv (1.2 GiB)
    • My.Love.Story!!.S01E03.1080p-Hi10p.BluRay.FLAC2.0.x264-CTR.[F891C30A].mkv (1.2 GiB)
    • My.Love.Story!!.S01E04.1080p-Hi10p.BluRay.FLAC2.0.x264-CTR.[FAA0BBB4].mkv (1.4 GiB)
    • My.Love.Story!!.S01E05.1080p-Hi10p.BluRay.FLAC2.0.x264-CTR.[81FB827B].mkv (1.1 GiB)
    • My.Love.Story!!.S01E06.1080p-Hi10p.BluRay.FLAC2.0.x264-CTR.[B78E710E].mkv (1.0 GiB)
    • My.Love.Story!!.S01E07.1080p-Hi10p.BluRay.FLAC2.0.x264-CTR.[425E6828].mkv (1.2 GiB)
    • My.Love.Story!!.S01E08.1080p-Hi10p.BluRay.FLAC2.0.x264-CTR.[23749A29].mkv (1.0 GiB)
    • My.Love.Story!!.S01E09.1080p-Hi10p.BluRay.FLAC2.0.x264-CTR.[CC5CB13E].mkv (1.1 GiB)
    • My.Love.Story!!.S01E10.1080p-Hi10p.BluRay.FLAC2.0.x264-CTR.[8AC1A19D].mkv (1.1 GiB)
    • My.Love.Story!!.S01E11.1080p-Hi10p.BluRay.FLAC2.0.x264-CTR.[1BED03FE].mkv (1.5 GiB)
    • My.Love.Story!!.S01E12.1080p-Hi10p.BluRay.FLAC2.0.x264-CTR.[DCC64DBA].mkv (1.1 GiB)
    • My.Love.Story!!.S01E13.1080p-Hi10p.BluRay.FLAC2.0.x264-CTR.[398910B1].mkv (1.1 GiB)
    • My.Love.Story!!.S01E14.1080p-Hi10p.BluRay.FLAC2.0.x264-CTR.[B5082E24].mkv (1.1 GiB)
    • My.Love.Story!!.S01E15.1080p-Hi10p.BluRay.FLAC2.0.x264-CTR.[19728AEB].mkv (1.2 GiB)
    • My.Love.Story!!.S01E16.1080p-Hi10p.BluRay.FLAC2.0.x264-CTR.[09B2EADC].mkv (1.3 GiB)
    • My.Love.Story!!.S01E17.1080p-Hi10p.BluRay.FLAC2.0.x264-CTR.[FF16B840].mkv (1.1 GiB)
    • My.Love.Story!!.S01E18.1080p-Hi10p.BluRay.FLAC2.0.x264-CTR.[43208123].mkv (1.1 GiB)
    • My.Love.Story!!.S01E19.1080p-Hi10p.BluRay.FLAC2.0.x264-CTR.[BB7DDF56].mkv (1.0 GiB)
    • My.Love.Story!!.S01E20.1080p-Hi10p.BluRay.FLAC2.0.x264-CTR.[F2D96769].mkv (1.1 GiB)
    • My.Love.Story!!.S01E21.1080p-Hi10p.BluRay.FLAC2.0.x264-CTR.[5E5AA121].mkv (1.0 GiB)
    • My.Love.Story!!.S01E22.1080p-Hi10p.BluRay.FLAC2.0.x264-CTR.[9C708118].mkv (1.2 GiB)
    • My.Love.Story!!.S01E23.1080p-Hi10p.BluRay.FLAC2.0.x264-CTR.[D1CF15E6].mkv (1.1 GiB)
    • My.Love.Story!!.S01E24.1080p-Hi10p.BluRay.FLAC2.0.x264-CTR.[421E36F9].mkv (1.1 GiB)