Haibane Renmei S01 1080p BluRay FLAC2.0 x264 [CTR] (English Dubbed Dual Audio)

Category:
Date:
2017-01-04 13:52 UTC
Submitter:
Seeders:
8
File size:
12.3 GiB
Completed:
1407
Info hash:
056b4293714028833d0c87fb1d7f43d14d36a223
![Image](https://i.gyazo.com/579d333083a15381ef89a9894e643fe0.png) **[DVD 480p Optionâž™](https://www.nyaa.se/?page=view&tid=886209)** **[Release Thread](http://kametsu.com/topic/56755-megatorrent-ctr-haibane-renmei-bd-1080p-dvd-480p-10-bitflac-20-dual-audio-angels-or-just-people-with-wings/) | [CTR Release Index](http://kametsu.com/topic/54803-the-ctr-index-your-new-home-for-bloated-1080p-dual-audio-releases/)** _~angels? or just people with wings...~_ ![Image](http://kametsu.com/images/downloads/info.png) `<br></br>Video Track: 480p-Hi10p | 1080p(philosophy-raws| Haibane-Fans)<br></br><br></br>Audio Track 1 (Default): English 2.0 FLAC (philosophy-raws| Haibane-Fans)<br></br>Audio Track 2: Japanese 2.0 FLAC (philosophy-raws| Haibane-Fans)<br></br><br></br>Subtitle Track 1 (Default): English Signs(.ASS) (Coalgirls)<br></br>Subtitle Track 2: English Dialogue (.ASS) (Coalgirls)<br></br><br></br>Chapters<br></br>` For this release, we've got two video options available.philosophy-rawshas provided us with a nice 480p 10 bit encode of the DVD, which is apparently free of the artifacts introduced by the somewhat poor conversion to HD done on the BluRay. However, because there must be a BluRay release if it's a CTR release, I've also included a version fromHaibane-Fans. For both, subtitles were taken fromCoalgirlssubs, which was based on the R1 set. I've unlinked them from ordered chapters and resynced them to the DVD and BluRay. Enjoy. General Unique ID : 192664225253149794756833076811540157773 (0x90F1C7B230C2F35F961CBC834B07554D) Complete name : S:\\Anime\\Haibane Renmei\\Haibane.Renmei.S01.1080p.BluRay.FLAC2.0.x264-CTR\\Haibane.Renmei.S01E01.1080p.BluRay.FLAC2.0.x264-CTR.\[AD2F795A\].mkv Format : Matroska Format version : Version 4 / Version 2 File size : 989 MiB Duration : 22 min 58 s Overall bit rate mode : Variable Overall bit rate : 6 016 kb/s Encoded date : UTC 2017-01-04 07:19:02 Writing application : mkvmerge v9.2.0 ('Photograph') 64bit Writing library : libebml v1.3.3 + libmatroska v1.4.4 Attachments : Eager\_Naturalist.ttf / HTOWERT.TTF / MyriadPro-Regular.otf Video ID : 1 Format : AVC Format/Info : Advanced Video Codec Format profile : High@L4.1 Format settings, CABAC : Yes Format settings, ReFrames : 4 frames Codec ID : V\_MPEG4/ISO/AVC Duration : 22 min 58 s Bit rate : 4 977 kb/s Width : 1 920 pixels Height : 1 080 pixels Display aspect ratio : 16:9 Frame rate mode : Constant Frame rate : 29.970 (30000/1001) FPS Color space : YUV Chroma subsampling : 4:2:0 Bit depth : 8 bits Scan type : Progressive Bits/(Pixel\*Frame) : 0.080 Stream size : 818 MiB (83%) Title : \[HAIBANE-FANS\] Writing library : x264 core 102 r1666M\_DANGEROUS d058f37 Encoding settings : cabac=1 / ref=4 / deblock=1:1:1 / analyse=0x3:0x133 / me=tesa / subme=10 / psy=1 / fade\_compensate=0.00 / psy\_rd=0.50:0.10 / mixed\_ref=1 / me\_range=32 / chroma\_me=1 / trellis=2 / 8x8dct=1 / cqm=0 / deadzone=21,11 / fast\_pskip=0 / chroma\_qp\_offset=-3 / threads=1 / sliced\_threads=0 / nr=0 / decimate=0 / interlaced=0 / constrained\_intra=0 / fgo=8 / bframes=8 / b\_pyramid=2 / b\_adapt=2 / b\_bias=0 / direct=3 / weightb=1 / open\_gop=0 / weightp=2 / keyint=300 / keyint\_min=30 / scenecut=40 / intra\_refresh=0 / rc\_lookahead=72 / rc=crf / mbtree=1 / crf=20.0 / qcomp=0.60 / qpmin=10 / qpmax=51 / qpstep=4 / ip\_ratio=1.40 / aq=1 / aq-metric=0 / aq-strength=1.00 / aq-sensitivity=10.00 / aq-ifactor=1.00 / aq-pfactor=1.00 / aq-bfactor=1.00 / aq2=0 Language : Japanese Default : Yes Forced : No Audio [\#1](//www.nyaa.se/?page=view&tid=1) ID : 2 Format : FLAC Format/Info : Free Lossless Audio Codec Codec ID : A\_FLAC Duration : 22 min 58 s Bit rate mode : Variable Bit rate : 530 kb/s Channel(s) : 2 channels Channel positions : Front: L R Sampling rate : 48.0 kHz Frame rate : 11.719 FPS (4096 spf) Bit depth : 16 bits Stream size : 87.1 MiB (9%) Title : FLAC 2.0 \[H-F\] Writing library : libFLAC 1.2.1 (UTC 2007-09-17) Language : English Default : Yes Forced : No Audio [\#2](//www.nyaa.se/?page=view&tid=2) ID : 3 Format : FLAC Format/Info : Free Lossless Audio Codec Codec ID : A\_FLAC Duration : 22 min 58 s Bit rate mode : Variable Bit rate : 505 kb/s Channel(s) : 2 channels Channel positions : Front: L R Sampling rate : 48.0 kHz Frame rate : 11.719 FPS (4096 spf) Bit depth : 16 bits Stream size : 83.1 MiB (8%) Title : FLAC 2.0 \[H-F\] Writing library : libFLAC 1.2.1 (UTC 2007-09-17) Language : Japanese Default : No Forced : No Text [\#1](//www.nyaa.se/?page=view&tid=1) ID : 4 Format : ASS Codec ID : S\_TEXT/ASS Codec ID/Info : Advanced Sub Station Alpha Duration : 21 min 13 s Bit rate : 11 b/s Count of elements : 34 Compression mode : Lossless Stream size : 1.79 KiB (0%) Title : e Language : English Default : Yes Forced : No Text [\#2](//www.nyaa.se/?page=view&tid=2) ID : 5 Format : ASS Codec ID : S\_TEXT/ASS Codec ID/Info : Advanced Sub Station Alpha Duration : 22 min 29 s Bit rate : 98 b/s Count of elements : 299 Compression mode : Lossless Stream size : 16.2 KiB (0%) Title : j Language : Japanese Default : No Forced : No Menu 00:00:00.000 : en:Intro 00:01:43.020 : en:Part 1 00:11:12.005 : en:Part 2 00:21:37.429 : en:Ending **CTR Releases:** Collecting the best available sources around the internet and packing them up so you don't have to. My releases cater specifically to English audio viewers, though Japanese viewers are of course welcome. More details can be found on the individual release threads or at [my index](http://kametsu.com/topic/54803-the-ctr-index-your-new-home-for-bloated-1080p-dual-audio-releases/) on Kametsu, where you can also pitch me on whatever shows I go after next. Enjoy. -ctr

File list

  • Haibane.Renmei.S01.1080p.BluRay.FLAC2.0.x264-CTR
    • Haibane.Renmei.S01E01.1080p.BluRay.FLAC2.0.x264-CTR.[AD2F795A].mkv (988.7 MiB)
    • Haibane.Renmei.S01E02.1080p.BluRay.FLAC2.0.x264-CTR.[326448FB].mkv (822.6 MiB)
    • Haibane.Renmei.S01E03.1080p.BluRay.FLAC2.0.x264-CTR.[B0270AFF].mkv (848.5 MiB)
    • Haibane.Renmei.S01E04.1080p.BluRay.FLAC2.0.x264-CTR.[FBBE79F5].mkv (964.1 MiB)
    • Haibane.Renmei.S01E05.1080p.BluRay.FLAC2.0.x264-CTR.[D6AFB785].mkv (1.1 GiB)
    • Haibane.Renmei.S01E06.1080p.BluRay.FLAC2.0.x264-CTR.[E3C354DD].mkv (1.1 GiB)
    • Haibane.Renmei.S01E07.1080p.BluRay.FLAC2.0.x264-CTR.[0F4BEE08].mkv (742.5 MiB)
    • Haibane.Renmei.S01E08.1080p.BluRay.FLAC2.0.x264-CTR.[0C93A0CD].mkv (885.9 MiB)
    • Haibane.Renmei.S01E09.1080p.BluRay.FLAC2.0.x264-CTR.[52B1D7E7].mkv (904.4 MiB)
    • Haibane.Renmei.S01E10.1080p.BluRay.FLAC2.0.x264-CTR.[FC6CF494].mkv (1.0 GiB)
    • Haibane.Renmei.S01E11.1080p.BluRay.FLAC2.0.x264-CTR.[CE70A49A].mkv (1.0 GiB)
    • Haibane.Renmei.S01E12.1080p.BluRay.FLAC2.0.x264-CTR.[5200F31D].mkv (1.0 GiB)
    • Haibane.Renmei.S01E13.1080p.BluRay.FLAC2.0.x264-CTR.[5A306FAD].mkv (1013.3 MiB)
English subtitles are not working, they do not display. Unless you don't mind resorting to the dub, I do not recommend this.
@Zetren the subtitles are reversed, the japanese subtitles are the english subtitles.
I tried four different releases and this was the best one. Thank you.
I'm going to ramble about the video quality a bit. I grabbed six of the english torrents with seeds. Two of them are based on the DVD (Note: They are based on different DVD releases) while the rest are BR. The DVD video has brighter colors. https://nyaa.si/view/237396 and https://nyaa.si/view/886209 are the DVD versions. Of the two cestfait looks much better (but has only jp audio). The BR video is upscale of the 480p video, it has some noticeable upscaling artifacts and the colors are duller than in the DVD version. It doesn't really matter much which one you download as the upscaling blurriness will be dominating the video. The only noticeable difference I saw was that the Coalgirls video is slightly stretched vertically compared to others. The 720p DmonHiro or the DB 1080p torrent would be my choice. They are much smaller than the rest while being basically indistinguishable (they are about same size). In the end I would go as far to say that the BR video is not better than the DVD (maybe even worse). Someone should create a dual audio torrent based on the DVD video (and could throw other language subs in there too because they often can't keep seeders on their own).