Haibane Renmei S01 480p Hi10p DVDRip FLAC2.0 x264 [CTR] (English Dubbed Dual Audio)

Category:
Date:
2017-01-04 13:29 UTC
Submitter:
Seeders:
2
File size:
4.1 GiB
Completed:
246
Info hash:
becc13c0ebb78020ca7ac05cd2abfc9aa5128b40
![Image](https://i.gyazo.com/579d333083a15381ef89a9894e643fe0.png) **[← BluRay 1080p Option](https://www.nyaa.se/?page=view&tid=886212)** **[Release Thread](http://kametsu.com/topic/56755-megatorrent-ctr-haibane-renmei-bd-1080p-dvd-480p-10-bitflac-20-dual-audio-angels-or-just-people-with-wings/) | [CTR Release Index](http://kametsu.com/topic/54803-the-ctr-index-your-new-home-for-bloated-1080p-dual-audio-releases/)** _~angels? or just people with wings...~_ ![Image](http://kametsu.com/images/downloads/info.png) `<br></br>Video Track: 480p-Hi10p | 1080p(philosophy-raws| Haibane-Fans)<br></br><br></br>Audio Track 1 (Default): English 2.0 FLAC (philosophy-raws| Haibane-Fans)<br></br>Audio Track 2: Japanese 2.0 FLAC (philosophy-raws| Haibane-Fans)<br></br><br></br>Subtitle Track 1 (Default): English Signs(.ASS) (Coalgirls)<br></br>Subtitle Track 2: English Dialogue (.ASS) (Coalgirls)<br></br><br></br>Chapters<br></br>` For this release, we've got two video options available.philosophy-rawshas provided us with a nice 480p 10 bit encode of the DVD, which is apparently free of the artifacts introduced by the somewhat poor conversion to HD done on the BluRay. However, because there must be a BluRay release if it's a CTR release, I've also included a version fromHaibane-Fans. For both, subtitles were taken fromCoalgirlssubs, which was based on the R1 set. I've unlinked them from ordered chapters and resynced them to the DVD and BluRay. Enjoy. General Unique ID : 187427161766098065815840862227873651641 (0x8D012887E6A4680AAB99F0D33D6FDBB9) Complete name : S:\\Anime\\Haibane Renmei\\Haibane.Renmei.S01.480p-Hi10p.DVDRip.FLAC2.0.x264-CTR\\Haibane.Renmei.S01E01.480p-Hi10p.DVDRip.FLAC2.0.x264-CTR.\[514CCA58\].mkv Format : Matroska Format version : Version 4 / Version 2 File size : 399 MiB Duration : 23 min 8 s Overall bit rate mode : Variable Overall bit rate : 2 409 kb/s Encoded date : UTC 2017-01-04 04:48:59 Writing application : mkvmerge v9.2.0 ('Photograph') 64bit Writing library : libebml v1.3.3 + libmatroska v1.4.4 Attachments : Eager\_Naturalist.ttf / HTOWERT.TTF / MyriadPro-Regular.otf Video ID : 1 Format : AVC Format/Info : Advanced Video Codec Format profile : High 10@L3.1 Format settings, CABAC : Yes Format settings, ReFrames : 8 frames Codec ID : V\_MPEG4/ISO/AVC Duration : 23 min 8 s Bit rate : 1 379 kb/s Width : 720 pixels Height : 480 pixels Display aspect ratio : 16:9 Original display aspect ratio : 16:9 Frame rate mode : Constant Frame rate : 29.970 (30000/1001) FPS Standard : NTSC Color space : YUV Chroma subsampling : 4:2:0 Bit depth : 10 bits Scan type : Progressive Bits/(Pixel\*Frame) : 0.133 Stream size : 228 MiB (57%) Title : \[philosophy-raws\] Writing library : x264 core 132 r2315+704+40 0b51699 tMod \[10-bit@4:2:0 X86\_64\] Encoding settings : cabac=1 / ref=8 / deblock=1:0:0 / analyse=0x3:0x133 / me=umh / subme=10 / psy=1 / fade\_compensate=0.00 / psy\_rd=0.60:0.15 / mixed\_ref=1 / me\_range=32 / chroma\_me=1 / trellis=2 / 8x8dct=1 / cqm=0 / deadzone=21,11 / fast\_pskip=0 / chroma\_qp\_offset=-3 / threads=24 / lookahead\_threads=3 / sliced\_threads=0 / nr=0 / decimate=0 / interlaced=0 / bluray\_compat=0 / constrained\_intra=0 / fgo=3 / bframes=12 / b\_pyramid=2 / b\_adapt=2 / b\_bias=0 / direct=3 / weightb=1 / open\_gop=0 / weightp=2 / keyint=infinite / keyint\_min=1 / scenecut=40 / intra\_refresh=0 / rc\_lookahead=72 / rc=crf / mbtree=1 / crf=19.0000 / qcomp=0.80 / qpmin=0 / qpmax=81 / qpstep=4 / ip\_ratio=1.40 / aq=3:0.90 / aq-sensitivity=10.00 / aq-factor=1.00:1.00:1.00 / aq2=1:0.60 / aq2-sensitivity=15.00 / aq2-factor=1.00:1.00:1.00 / aq3=0 Language : Japanese Default : Yes Forced : No Audio [\#1](//www.nyaa.se/?page=view&tid=1) ID : 2 Format : FLAC Format/Info : Free Lossless Audio Codec Codec ID : A\_FLAC Duration : 22 min 55 s Bit rate mode : Variable Bit rate : 530 kb/s Channel(s) : 2 channels Channel positions : Front: L R Sampling rate : 48.0 kHz Frame rate : 11.719 FPS (4096 spf) Bit depth : 16 bits Delay relative to video : 500 ms Stream size : 87.0 MiB (22%) Title : FLAC 2.0 \[philosophy\] Writing library : libFLAC 1.2.1 (UTC 2007-09-17) Language : English Default : Yes Forced : No Audio [\#2](//www.nyaa.se/?page=view&tid=2) ID : 3 Format : FLAC Format/Info : Free Lossless Audio Codec Codec ID : A\_FLAC Duration : 22 min 55 s Bit rate mode : Variable Bit rate : 506 kb/s Channel(s) : 2 channels Channel positions : Front: L R Sampling rate : 48.0 kHz Frame rate : 11.719 FPS (4096 spf) Bit depth : 16 bits Delay relative to video : 500 ms Stream size : 83.0 MiB (21%) Title : FLAC 2.0 \[philosophy\] Writing library : libFLAC 1.2.1 (UTC 2007-09-17) Language : Japanese Default : No Forced : No Text [\#1](//www.nyaa.se/?page=view&tid=1) ID : 4 Format : ASS Codec ID : S\_TEXT/ASS Codec ID/Info : Advanced Sub Station Alpha Duration : 21 min 12 s Bit rate : 11 b/s Count of elements : 34 Compression mode : Lossless Stream size : 1.79 KiB (0%) Title : Signs \[Coalgirls\] Language : English Default : Yes Forced : No Text [\#2](//www.nyaa.se/?page=view&tid=2) ID : 5 Format : ASS Codec ID : S\_TEXT/ASS Codec ID/Info : Advanced Sub Station Alpha Duration : 22 min 29 s Bit rate : 98 b/s Count of elements : 299 Compression mode : Lossless Stream size : 16.2 KiB (0%) Title : Subtitles \[Coalgirls\] Language : Japanese Default : No Forced : No Menu 00:00:00.000 : en:Intro 00:01:43.020 : en:Part 1 00:11:12.005 : en:Part 2 00:21:37.429 : en:Ending **CTR Releases:** Collecting the best available sources around the internet and packing them up so you don't have to. My releases cater specifically to English audio viewers, though Japanese viewers are of course welcome. More details can be found on the individual release threads or at [my index](http://kametsu.com/topic/54803-the-ctr-index-your-new-home-for-bloated-1080p-dual-audio-releases/) on Kametsu, where you can also pitch me on whatever shows I go after next. Enjoy. -ctr

File list

  • Haibane.Renmei.S01.480p-Hi10p.DVDRip.FLAC2.0.x264-CTR
    • Haibane.Renmei.S01E01.480p-Hi10p.DVDRip.FLAC2.0.x264-CTR.[514CCA58].mkv (398.9 MiB)
    • Haibane.Renmei.S01E02.480p-Hi10p.DVDRip.FLAC2.0.x264-CTR.[9227146C].mkv (317.3 MiB)
    • Haibane.Renmei.S01E03.480p-Hi10p.DVDRip.FLAC2.0.x264-CTR.[64329AEA].mkv (291.9 MiB)
    • Haibane.Renmei.S01E04.480p-Hi10p.DVDRip.FLAC2.0.x264-CTR.[35F5BA6B].mkv (299.1 MiB)
    • Haibane.Renmei.S01E05.480p-Hi10p.DVDRip.FLAC2.0.x264-CTR.[FB40C3F3].mkv (326.6 MiB)
    • Haibane.Renmei.S01E06.480p-Hi10p.DVDRip.FLAC2.0.x264-CTR.[67616B07].mkv (374.5 MiB)
    • Haibane.Renmei.S01E07.480p-Hi10p.DVDRip.FLAC2.0.x264-CTR.[1BECAE00].mkv (273.4 MiB)
    • Haibane.Renmei.S01E08.480p-Hi10p.DVDRip.FLAC2.0.x264-CTR.[4D12C569].mkv (300.7 MiB)
    • Haibane.Renmei.S01E09.480p-Hi10p.DVDRip.FLAC2.0.x264-CTR.[A114C188].mkv (298.0 MiB)
    • Haibane.Renmei.S01E10.480p-Hi10p.DVDRip.FLAC2.0.x264-CTR.[95B9AF82].mkv (325.5 MiB)
    • Haibane.Renmei.S01E11.480p-Hi10p.DVDRip.FLAC2.0.x264-CTR.[7AE57253].mkv (313.2 MiB)
    • Haibane.Renmei.S01E12.480p-Hi10p.DVDRip.FLAC2.0.x264-CTR.[57302EDC].mkv (331.3 MiB)
    • Haibane.Renmei.S01E13.480p-Hi10p.DVDRip.FLAC2.0.x264-CTR.[36A93998].mkv (315.3 MiB)
my only real complaint with this release is that after episode 3 ends the rest of the videos are all titled something along the lines of "haibane renmei episode 4 1280x720p " which was a bit confusing since i had to look at the filenames to check which episode i was on. other than that it's fine!
I'm sorry but this rip isn't good if you value the visuals. Check this comparison: https://imgur.com/a/v2SzAte – squished image, worse colors, blur. Going to rewatch and looking for something better than the russian dvd and so far cestfait checks out.