Outlaw Star S01 1080p Hi10p BluRay FLAC2.0 x264 [CTR] (English Dubbed Dual Audio)

Category:
Date:
2017-01-03 14:48 UTC
Submitter:
Seeders:
1
File size:
61.1 GiB
Completed:
72
Info hash:
cb0da342d35afbd3d9678ba5bfaa97d317b18f9e
![Image](https://i.gyazo.com/06e84c6e3d4dde918d8d084ecfdf0411.png) **[Release Thread](http://kametsu.com/topic/56738-megatorrentctr-outlaw-star-bd-1080p-10bitflac-20-dual-audio-wholesale-ripoffs/) | [CTR Release Index](http://kametsu.com/topic/54803-the-ctr-index-your-new-home-for-bloated-1080p-dual-audio-releases/)** _~rip deanzel~_ ![Image](http://kametsu.com/images/downloads/info.png) `<br></br>Video Track: 1080p-Hi10p (Kagura-Raws)<br></br><br></br>Audio Track 1 (Default): English 2.0 FLAC (CTR)<br></br>Audio Track 2: Japanese 2.0 FLAC (Kagura-Raws)<br></br><br></br>Subtitle Track 1 (Default): English Signs(.ASS) (CBM-deanzel)<br></br>Subtitle Track 2: English Dialogue (.ASS) (CBM)<br></br><br></br>Chapters<br></br>` made with deanzel's blessing. literally just deanzel's release with lossless audio on the English track. Kagura-Raws video, CBM subs (based on R1), Gray\_Phantom KFX/Titles, chapters from OZC. no 720p. placebo all the way. enjoy. General Unique ID : 246412868356901167957935560187603670721 (0xB96164663DFA1403A7B0C178E85156C1) Complete name : S:\\Anime\\Outlaw Star\\Season 1\\Outlaw.Star.S01.1080p-Hi10p.BluRay.FLAC2.0.x264-CTR\\Outlaw.Star.S01E01.1080p-Hi10p.BluRay.FLAC2.0.x264-CTR.\[1DB6A047\].mkv Format : Matroska Format version : Version 4 / Version 2 File size : 2.58 GiB Duration : 24 min 7 s Overall bit rate mode : Variable Overall bit rate : 15.3 Mb/s Movie name : \[deanzel\] Outlaw Star - 01 \[BD 1440x1080 Hi10P Dual Audio FLAC-AC3\] Encoded date : UTC 2017-01-03 00:15:56 Writing application : mkvmerge v9.2.0 ('Photograph') 64bit Writing library : libebml v1.3.3 + libmatroska v1.4.4 Attachments : RUACHN.TTF / bellgothicstd-black.otf / DOS\_\_\_\_\_\_0.TTF / jesaya free\_0.ttf / PASTOROF\_0.ttf / SimplixDisplaySSK Regular\_0.ttf / SimplixDisplaySSK\_0.ttf / SimplixSSK Regular\_0.ttf / SimplixSSK\_0.ttf / TERMINAT\_0.TTF / Yellowr\_0.ttf / You Are Loved\_0.ttf Video ID : 1 Format : AVC Format/Info : Advanced Video Codec Format profile : High 10@L5.1 Format settings, CABAC : Yes Format settings, ReFrames : 10 frames Codec ID : V\_MPEG4/ISO/AVC Duration : 24 min 7 s Bit rate : 14.1 Mb/s Width : 1 440 pixels Height : 1 080 pixels Display aspect ratio : 4:3 Frame rate mode : Constant Frame rate : 23.976 (24000/1001) FPS Color space : YUV Chroma subsampling : 4:2:0 Bit depth : 10 bits Scan type : Progressive Bits/(Pixel\*Frame) : 0.378 Stream size : 2.37 GiB (92%) Title : \[Kagura\] Outlaw Star - 01 \[BDRip 1440x1080 x264 Hi10P FLAC\] Language : Japanese Default : Yes Forced : No Audio [\#1](//www.nyaa.se/?page=view&tid=1) ID : 2 Format : FLAC Format/Info : Free Lossless Audio Codec Codec ID : A\_FLAC Duration : 24 min 7 s Bit rate mode : Variable Bit rate : 602 kb/s Channel(s) : 2 channels Sampling rate : 48.0 kHz Frame rate : 11.719 FPS (4096 spf) Bit depth : 16 bits Stream size : 104 MiB (4%) Title : FLAC 2.0 \[CTR\] Writing library : libFLAC 1.2.1 (UTC 2007-09-17) Language : English Default : Yes Forced : No Audio [\#2](//www.nyaa.se/?page=view&tid=2) ID : 3 Format : FLAC Format/Info : Free Lossless Audio Codec Codec ID : A\_FLAC Duration : 24 min 7 s Bit rate mode : Variable Bit rate : 620 kb/s Channel(s) : 2 channels Channel positions : Front: L R Sampling rate : 48.0 kHz Frame rate : 11.719 FPS (4096 spf) Bit depth : 16 bits Stream size : 107 MiB (4%) Title : FLAC 2.0 \[Kagura\] Writing library : libFLAC 1.3.0 (UTC 2013-05-26) Language : Japanese Default : No Forced : No Text [\#1](//www.nyaa.se/?page=view&tid=1) ID : 4 Format : ASS Codec ID : S\_TEXT/ASS Codec ID/Info : Advanced Sub Station Alpha Duration : 23 min 20 s Bit rate : 41 b/s Count of elements : 55 Compression mode : Lossless Stream size : 7.15 KiB (0%) Title : Signs \[deanzel\] Language : English Default : Yes Forced : No Text [\#2](//www.nyaa.se/?page=view&tid=2) ID : 5 Format : ASS Codec ID : S\_TEXT/ASS Codec ID/Info : Advanced Sub Station Alpha Duration : 23 min 55 s Bit rate : 122 b/s Count of elements : 325 Compression mode : Lossless Stream size : 21.5 KiB (0%) Title : Subittles \[CBM-deanzel\] Language : Japanese Default : No Forced : No Menu 00:00:00.000 : en:Prologue 00:00:44.016 : en:Opening Credits 00:02:14.160 : en:Part A 00:13:28.890 : en:Part B 00:22:06.295 : en:Ending Credits 00:23:36.385 : en:Next Episode **CTR Releases:** Collecting the best available sources around the internet and packing them up so you don't have to. My releases cater specifically to English audio viewers, though Japanese viewers are of course welcome. More details can be found on the individual release threads or at [my index](http://kametsu.com/topic/54803-the-ctr-index-your-new-home-for-bloated-1080p-dual-audio-releases/) on Kametsu, where you can also pitch me on whatever shows I go after next. Enjoy. -ctr

File list

  • Outlaw.Star.S01.1080p-Hi10p.BluRay.FLAC2.0.x264-CTR
    • Outlaw.Star.S01E01.1080p-Hi10p.BluRay.FLAC2.0.x264-CTR.[1DB6A047].mkv (2.6 GiB)
    • Outlaw.Star.S01E02.1080p-Hi10p.BluRay.FLAC2.0.x264-CTR.[997552FF].mkv (2.7 GiB)
    • Outlaw.Star.S01E03.1080p-Hi10p.BluRay.FLAC2.0.x264-CTR.[914E207B].mkv (2.9 GiB)
    • Outlaw.Star.S01E04.1080p-Hi10p.BluRay.FLAC2.0.x264-CTR.[5F469F42].mkv (2.4 GiB)
    • Outlaw.Star.S01E05.1080p-Hi10p.BluRay.FLAC2.0.x264-CTR.[2BF8E1BA].mkv (2.3 GiB)
    • Outlaw.Star.S01E06.1080p-Hi10p.BluRay.FLAC2.0.x264-CTR.[081DC923].mkv (2.3 GiB)
    • Outlaw.Star.S01E07.1080p-Hi10p.BluRay.FLAC2.0.x264-CTR.[BC4EDA6D].mkv (2.3 GiB)
    • Outlaw.Star.S01E08.1080p-Hi10p.BluRay.FLAC2.0.x264-CTR.[8FF3ED14].mkv (2.7 GiB)
    • Outlaw.Star.S01E09.1080p-Hi10p.BluRay.FLAC2.0.x264-CTR.[0B18E4D1].mkv (2.1 GiB)
    • Outlaw.Star.S01E10.1080p-Hi10p.BluRay.FLAC2.0.x264-CTR.[F72AF9DA].mkv (2.3 GiB)
    • Outlaw.Star.S01E11.1080p-Hi10p.BluRay.FLAC2.0.x264-CTR.[3722ADE3].mkv (2.7 GiB)
    • Outlaw.Star.S01E12.1080p-Hi10p.BluRay.FLAC2.0.x264-CTR.[4D452F29].mkv (2.6 GiB)
    • Outlaw.Star.S01E13.1080p-Hi10p.BluRay.FLAC2.0.x264-CTR.[615E51A5].mkv (2.5 GiB)
    • Outlaw.Star.S01E14.1080p-Hi10p.BluRay.FLAC2.0.x264-CTR.[689201A9].mkv (2.2 GiB)
    • Outlaw.Star.S01E15.1080p-Hi10p.BluRay.FLAC2.0.x264-CTR.[ED1F8AC4].mkv (2.0 GiB)
    • Outlaw.Star.S01E16.1080p-Hi10p.BluRay.FLAC2.0.x264-CTR.[E18BEED9].mkv (2.2 GiB)
    • Outlaw.Star.S01E17.1080p-Hi10p.BluRay.FLAC2.0.x264-CTR.[F2DCE70C].mkv (2.2 GiB)
    • Outlaw.Star.S01E18.1080p-Hi10p.BluRay.FLAC2.0.x264-CTR.[7C14D421].mkv (2.1 GiB)
    • Outlaw.Star.S01E19.1080p-Hi10p.BluRay.FLAC2.0.x264-CTR.[680A8C90].mkv (2.2 GiB)
    • Outlaw.Star.S01E20.1080p-Hi10p.BluRay.FLAC2.0.x264-CTR.[B00AA7FC].mkv (2.2 GiB)
    • Outlaw.Star.S01E21.1080p-Hi10p.BluRay.FLAC2.0.x264-CTR.[04238592].mkv (2.0 GiB)
    • Outlaw.Star.S01E22.1080p-Hi10p.BluRay.FLAC2.0.x264-CTR.[2512CA3C].mkv (2.3 GiB)
    • Outlaw.Star.S01E23.1080p-Hi10p.BluRay.FLAC2.0.x264-CTR.[C5C86837].mkv (2.6 GiB)
    • Outlaw.Star.S01E24.1080p-Hi10p.BluRay.FLAC2.0.x264-CTR.[A86F84D1].mkv (2.4 GiB)
    • Outlaw.Star.S01E25.1080p-Hi10p.BluRay.FLAC2.0.x264-CTR.[763084C6].mkv (1.8 GiB)
    • Outlaw.Star.S01E26.1080p-Hi10p.BluRay.FLAC2.0.x264-CTR.[C0B3CFF8].mkv (2.5 GiB)
All peers are stuck at 87%, can someone re-seed this one please?