Spice and Wolf S02 v2 1080p Hi10p BluRay FLAC5.1 x264 [CTR] (English Dubbed Dual Audio)

Category:
Date:
2016-12-28 18:47 UTC
Submitter:
Seeders:
5
File size:
21.6 GiB
Completed:
600
Info hash:
10d2008e309466cdb566fda93aefc3fcdda2a3f4
![Image](https://i.gyazo.com/2148f301374ff8fb26f9d5d32f0be2b5.png) **[←Season 1](https://www.nyaa.se/?page=view&tid=854949)** **[720p Option➙](https://www.nyaa.se/?page=view&tid=884813)** **[Release Thread](http://kametsu.com/topic/55720-megatorrent-ctr-spice-wolf-bd-720p-10bit-1080p-10bitaac-51-flac-51-dual-audio-i-love-medieval-economics/) | [CTR Release Index](http://kametsu.com/topic/54803-the-ctr-index-your-new-home-for-bloated-1080p-dual-audio-releases/)** _~medieval economics are fun!~_ ![Image](http://kametsu.com/images/downloads/info.png) `<br></br>Video Track: 720p-Hi10p | 1080p-Hi10p (Baal/lleur | Zurako)<br></br><br></br>Audio Track 1 (Default): English 5.1 AAC | 5.1 FLAC (CTR)<br></br>Audio Track 2: Japanese 2.0 AAC | 2.0 FLAC (CTR)<br></br><br></br>Subtitle Track 1 (Default): English Signs(.ASS) (Baal/Cman, Zurako/Elysium)<br></br>Subtitle Track 2: English Dialogue (.ASS) (Baal/Cman, Zurako/Elysium)<br></br>Subtitle Track 3: English Signs (Retail) (.PGS) (Funimation)<br></br>Subtitle Track 4: English Subtitles (Retail) (.PGS) (Funimation)<br></br>` **V2:** Fixes subtitle styling and karaoke timing on the OP/ED. Patches for v1 [here](https://mega.nz/#F!DcwCRAbS!V9j1O183ueaGamFXClSsEw). Another one of the greatest shows of all time, but this time completely unexpectedly (for me at least). I saw the premise, saw the character art, and figured this was either going to be super boring or awkward as hell. How wrong I was, and how happy I was to be wrong. Frequently entertaining and surprisingly compelling, Spice & Wolf is a true treasure. I'm not going to say it's for everyone; it's certainly a niche show in many regards. However, give it a chance and you might be surprised. I've put together both seasons of the show for release today. For season one, this will be 720p-only. The original release of Spice & Wolf was not made in HD. The JPBD was remastered to that resolution, but 1080p is completely unnecessary, and no perfect 1080p encodes exist. However, we do have a fantastic encode from Baal, available here at Kametsu. My version of Baal's release isn't particularly special, but I have upgraded his audio to lossless to create a final definitive version of season 1. Subs for season one also come from him, as a restyled version of Cman's subtitle release. For season two, it gets a little more complicated. After comparing a pretty wide stack of releases, I've elected to go with Zurako's 1080p release. This was the only 10-bit release at the quality we found acceptable. While a 10-bit encode is coming from one of my usual favorites (Beatrice-Raws), based on their results with season 1 only a few months ago, I'm not expecting much (banding and other problems, definitely inferior to Baal). Zurako did not do a 1080p, but in 720p we have an excellent replacement in lleur. This release was originally dual-audio, but it only included 2.0 English audio, which just won't do. I've upgraded it to AAC 5.1 as it should be, ripped from the USBD. For season two subtitles, it's again a little complex. I've merged a few releases here to create what I think are the best available set. The OP/ED come from Elysium, who had a full timed karaoke set with romaji and kanji. I've resized it slightly to fit better, but otherwise it's mostly untouched. The subtitles come from Zurako's script, which is based on the official R1 subs. I've restyled it to match Baal's subs from season 1 for a consistent feel throughout the series (even though I won't be watching them. J. Michael Tatum and Brina Palencia? 100% yes). Finally, I've included the official PGS subs from Funimation as a bonus. This applies to both season 1 and 2. I love this show. Enjoy. General Unique ID : 174918202036585583647613204443399517397 (0x839805332BE11DB499A5A90354A0F4D5) Complete name : S:\\Anime\\Spice and Wolf\\Season 2\\Spice.and.Wolf.S02.v2.1080p-Hi10p.BluRay.FLAC5.1.x264-CTR\\Spice.and.Wolf.S02E01.v2.1080p-Hi10p.BluRay.FLAC5.1.x264-CTR.\[7A6E927B\].mkv Format : Matroska Format version : Version 4 / Version 2 File size : 1.39 GiB Duration : 23 min 51 s Overall bit rate mode : Variable Overall bit rate : 8 343 kb/s Encoded date : UTC 2016-12-24 19:09:45 Writing application : mkvmerge v9.2.0 ('Photograph') 64bit Writing library : libebml v1.3.3 + libmatroska v1.4.4 Attachments : Perrywood MT Std Extra Bold Cn.otf / nyala.ttf / simkai.ttf / MinionPro-BoldIt.otf / amerigo-bt.ttf / ANCISE\_.TTF / cambria.ttc / Gabriola.ttf / GARABD.TTF / LCALLIG.TTF / MinionPro-Bold.otf Video ID : 1 Format : AVC Format/Info : Advanced Video Codec Format profile : High 10@L5.1 Format settings, CABAC : Yes Format settings, ReFrames : 7 frames Codec ID : V\_MPEG4/ISO/AVC Duration : 23 min 45 s Bit rate : 5 484 kb/s Width : 1 912 pixels Height : 1 076 pixels Display aspect ratio : 16:9 Frame rate mode : Constant Frame rate : 23.976 (24000/1001) FPS Color space : YUV Chroma subsampling : 4:2:0 Bit depth : 10 bits Scan type : Progressive Bits/(Pixel\*Frame) : 0.111 Stream size : 932 MiB (65%) Title : \[Zurako\] Writing library : x264 core 125 r2200+677M 3a754e7 Encoding settings : cabac=1 / ref=7 / deblock=1:-2:-2 / analyse=0x3:0x113 / me=umh / subme=10 / psy=1 / fade\_compensate=0.00 / psy\_rd=0.50:0.00 / mixed\_ref=1 / me\_range=32 / chroma\_me=1 / trellis=2 / 8x8dct=1 / cqm=0 / deadzone=21,11 / fast\_pskip=0 / chroma\_qp\_offset=-2 / threads=9 / lookahead\_threads=1 / sliced\_threads=0 / nr=0 / decimate=0 / interlaced=0 / bluray\_compat=0 / constrained\_intra=0 / fgo=0 / bframes=12 / b\_pyramid=2 / b\_adapt=2 / b\_bias=0 / direct=1 / weightb=1 / open\_gop=0 / weightp=2 / keyint=250 / keyint\_min=23 / scenecut=40 / intra\_refresh=0 / rc=crf / mbtree=0 / crf=15.0000 / qcomp=0.70 / qpmin=0 / qpmax=81 / qpstep=4 / ip\_ratio=1.40 / pb\_ratio=1.30 / aq=3:0.85 Language : Japanese Default : Yes Forced : No Color range : Limited Matrix coefficients : BT.709 Audio [\#1](//www.nyaa.se/?page=view&tid=1) ID : 2 Format : FLAC Format/Info : Free Lossless Audio Codec Codec ID : A\_FLAC Duration : 23 min 50 s Bit rate mode : Variable Bit rate : 1 998 kb/s Channel(s) : 6 channels Channel positions : Front: L C R, Side: L R, LFE Sampling rate : 48.0 kHz Frame rate : 11.719 FPS (4096 spf) Bit depth : 24 bits Detected bit depth : 20 bits Delay relative to video : 39 ms Stream size : 341 MiB (24%) Title : FLAC 5.1 \[CTR\] Writing library : libFLAC 1.2.1 (UTC 2007-09-17) Language : English Default : Yes Forced : No Audio [\#2](//www.nyaa.se/?page=view&tid=2) ID : 3 Format : FLAC Format/Info : Free Lossless Audio Codec Codec ID : A\_FLAC Duration : 23 min 51 s Bit rate mode : Variable Bit rate : 639 kb/s Channel(s) : 2 channels Channel positions : Front: L R Sampling rate : 48.0 kHz Frame rate : 11.719 FPS (4096 spf) Bit depth : 16 bits Delay relative to video : 39 ms Stream size : 109 MiB (8%) Title : FLAC 2.0 \[CTR\] Writing library : libFLAC 1.2.1 (UTC 2007-09-17) Language : Japanese Default : No Forced : No Text [\#1](//www.nyaa.se/?page=view&tid=1) ID : 4 Format : ASS Codec ID : S\_TEXT/ASS Codec ID/Info : Advanced Sub Station Alpha Duration : 23 min 43 s Bit rate : 45 b/s Count of elements : 78 Compression mode : Lossless Stream size : 7.86 KiB (0%) Title : Signs \[CTR\] Language : English Default : Yes Forced : No Text [\#2](//www.nyaa.se/?page=view&tid=2) ID : 5 Format : ASS Codec ID : S\_TEXT/ASS Codec ID/Info : Advanced Sub Station Alpha Duration : 23 min 43 s Bit rate : 160 b/s Count of elements : 447 Compression mode : Lossless Stream size : 28.0 KiB (0%) Title : Subtitles \[CTR\] Language : Japanese Default : No Forced : No Text [\#3](//www.nyaa.se/?page=view&tid=3) ID : 6 Format : PGS Muxing mode : zlib Codec ID : S\_HDMV/PGS Codec ID/Info : Picture based subtitle format used on BDs/HD-DVDs Duration : 23 min 35 s Bit rate : 1 133 b/s Count of elements : 50 Stream size : 196 KiB (0%) Title : Signs \[Funimation\] Language : English Default : No Forced : No Text [\#4](//www.nyaa.se/?page=view&tid=4) ID : 7 Format : PGS Muxing mode : zlib Codec ID : S\_HDMV/PGS Codec ID/Info : Picture based subtitle format used on BDs/HD-DVDs Duration : 23 min 49 s Bit rate : 13.8 kb/s Count of elements : 734 Stream size : 2.35 MiB (0%) Title : Subtitles \[Funimation\] Language : Japanese Default : No Forced : No Menu 00:00:00.000 : en:Opening 00:01:30.173 : en:Part A 00:10:10.026 : en:Part B 00:22:09.995 : en:Ending 00:23:40.043 : en:Preview **CTR Releases:** Collecting the best available sources around the internet and packing them up so you don't have to. My releases cater specifically to English audio viewers, though Japanese viewers are of course welcome. More details can be found on the individual release threads or at [my index](http://kametsu.com/topic/54803-the-ctr-index-your-new-home-for-bloated-1080p-dual-audio-releases/) on Kametsu, where you can also pitch me on whatever shows I go after next. Enjoy. -ctr

File list

  • Spice.and.Wolf.S02.v2.1080p-Hi10p.BluRay.FLAC5.1.x264-CTR
    • Spice.and.Wolf.S00E04.Wolf.and.the.Amber.Melancholy.v2.1080p-Hi10p.BluRay.FLAC5.1.x264-CTR.[592B256F].mkv (1.3 GiB)
    • Spice.and.Wolf.S02E01.v2.1080p-Hi10p.BluRay.FLAC5.1.x264-CTR.[7A6E927B].mkv (1.4 GiB)
    • Spice.and.Wolf.S02E02.v2.1080p-Hi10p.BluRay.FLAC5.1.x264-CTR.[FC6A9DA7].mkv (1.3 GiB)
    • Spice.and.Wolf.S02E03.v2.1080p-Hi10p.BluRay.FLAC5.1.x264-CTR.[7DEC131B].mkv (1.4 GiB)
    • Spice.and.Wolf.S02E04.v2.1080p-Hi10p.BluRay.FLAC5.1.x264-CTR.[98FBD587].mkv (1.7 GiB)
    • Spice.and.Wolf.S02E05.v2.1080p-Hi10p.BluRay.FLAC5.1.x264-CTR.[CF2D4680].mkv (1.7 GiB)
    • Spice.and.Wolf.S02E06.v2.1080p-Hi10p.BluRay.FLAC5.1.x264-CTR.[1C38E24E].mkv (1.8 GiB)
    • Spice.and.Wolf.S02E07.v2.1080p-Hi10p.BluRay.FLAC5.1.x264-CTR.[CFF82703].mkv (1.8 GiB)
    • Spice.and.Wolf.S02E08.v2.1080p-Hi10p.BluRay.FLAC5.1.x264-CTR.[BC5C168E].mkv (1.7 GiB)
    • Spice.and.Wolf.S02E09.v2.1080p-Hi10p.BluRay.FLAC5.1.x264-CTR.[B9B1ED7C].mkv (1.6 GiB)
    • Spice.and.Wolf.S02E10.v2.1080p-Hi10p.BluRay.FLAC5.1.x264-CTR.[FA44F594].mkv (1.8 GiB)
    • Spice.and.Wolf.S02E11.v2.1080p-Hi10p.BluRay.FLAC5.1.x264-CTR.[14F95A23].mkv (1.9 GiB)
    • Spice.and.Wolf.S02E12.v2.1080p-Hi10p.BluRay.FLAC5.1.x264-CTR.[3DB41170].mkv (2.1 GiB)