Noein S01 DVDRip AAC5.1 x264 [CTR] (English Dubbed Dual Audio) (Noein: to your other self)

Category:
Date:
2016-12-10 12:43 UTC
Submitter:
Seeders:
9
File size:
9.1 GiB
Completed:
863
Info hash:
3f21c9323a1617dad84a5ab86adda2c6e86dc481
![Image](https://i.gyazo.com/37186e4e7616ce9398bbf4e1bf7549ab.png) **[←FLAC Option](https://www.nyaa.se/?page=view&tid=878993)** **[Release Thread](http://kametsu.com/topic/56462-megatorrent-ctr-noein-to-your-other-self-dvdripaac-51-flac-51-dual-audio-quantum-mechanics-for-kids/) | [CTR Release Index](http://kametsu.com/topic/54803-the-ctr-index-your-new-home-for-bloated-1080p-dual-audio-releases/)** _~quantum mechanics for kids!~_ ![Image](http://kametsu.com/images/downloads/info.png) `<br></br>Video Track: 480p DVD(Henshin)<br></br><br></br>Audio Track 1 (Default): English 5.1AAC (Etzimal)<br></br>Audio Track 2: Japanese 5.1AAC(Etzimal)<br></br><br></br>Subtitle Track 1 (Default): English Signs(.ASS) (voss)<br></br>Subtitle Track 2: English Dialogue (.ASS) (voss)<br></br><br></br>Chapters<br></br>` For this release, I've gone ahead with just usingvoss's original release, which was still better quality than all the others I saw. The Blurays in this case were a pretty bad upscale, and in comparisons we found that the DVDs still looked better on the whole. The voss release used an encode fromHenshin, and some crappy audio that I've replaced wholesale with the lossless audio from the USBD, courtesy of Etzimal(assuming he exists and isn't just a figment of my imagination brought into being by observation). Now, that more than doubles the filesize from the original, which is a bit ridiculous, so as a concession to my filesize-obsessed fans, I've made an AAC version that retains the low filesize of the voss release. Finally, since it was lacking on the original set, I've created a signs track from voss' subtitles, and dropped the SRT track for a more clean and straightforward package. Enjoy, friends, and remember, if no one sees you, you don't exist! General Unique ID : 207454040894086292001978835234033611016 (0x9C1231E7DD0B26EE8A6B5CA76E19B108) Complete name : S:\\Anime\\Noein\\Season 1\\Noein.S01.DVDRip.AAC5.1.x264-CTR\\Noein.S01E01.DVDRip.AAC5.1.x264-CTR.\[C0E8EB16\].mkv Format : Matroska Format version : Version 4 / Version 2 File size : 386 MiB Duration : 25 min 10 s Overall bit rate : 2 144 kb/s Movie name : \[voss\] Noein (01/24) Blue Snow Encoded date : UTC 2016-12-10 06:26:16 Writing application : mkvmerge v9.2.0 ('Photograph') 64bit Writing library : libebml v1.3.3 + libmatroska v1.4.4 Attachments : harabara.ttf / leelawad.ttf / leelawdb.ttf Video ID : 1 Format : AVC Format/Info : Advanced Video Codec Format profile : High@L3.2 Format settings, CABAC : Yes Format settings, ReFrames : 14 frames Codec ID : V\_MPEG4/ISO/AVC Duration : 25 min 10 s Bit rate : 1 300 kb/s Width : 720 pixels Height : 480 pixels Display aspect ratio : 16:9 Original display aspect ratio : 3:2 Frame rate mode : Constant Frame rate : 23.976 (24000/1001) FPS Color space : YUV Chroma subsampling : 4:2:0 Bit depth : 8 bits Scan type : Progressive Bits/(Pixel\*Frame) : 0.157 Stream size : 234 MiB (61%) Title : \[Henshin\] R2DVD x264 Writing library : x264 core 65 r1016 dbc5ef0 Encoding settings : cabac=1 / ref=14 / deblock=1:1:1 / analyse=0x3:0x113 / me=umh / subme=9 / psy\_rd=1.0:0.0 / mixed\_ref=1 / me\_range=16 / chroma\_me=1 / trellis=2 / 8x8dct=1 / cqm=0 / deadzone=21,11 / chroma\_qp\_offset=-2 / threads=3 / nr=0 / decimate=0 / mbaff=0 / bframes=16 / b\_pyramid=1 / b\_adapt=1 / b\_bias=0 / direct=3 / wpredb=1 / keyint=250 / keyint\_min=25 / scenecut=40(pre) / rc=2pass / bitrate=1300 / ratetol=1.0 / qcomp=0.60 / qpmin=10 / qpmax=51 / qpstep=4 / cplxblur=20.0 / qblur=0.5 / ip\_ratio=1.40 / pb\_ratio=1.30 / aq=1:1.00 Language : Japanese Default : Yes Forced : No Audio [\#1](//www.nyaa.se/?page=view&tid=1) ID : 2 Format : AAC Format/Info : Advanced Audio Codec Format profile : LC Codec ID : A\_AAC Duration : 25 min 10 s Bit rate : 416 kb/s Channel(s) : 6 channels Channel positions : Front: L C R, Side: L R, LFE Sampling rate : 48.0 kHz Frame rate : 46.875 FPS (1024 spf) Compression mode : Lossy Delay relative to video : 11 ms Stream size : 74.8 MiB (19%) Title : e Language : English Default : Yes Forced : No Audio [\#2](//www.nyaa.se/?page=view&tid=2) ID : 3 Format : AAC Format/Info : Advanced Audio Codec Format profile : LC Codec ID : A\_AAC Duration : 25 min 10 s Bit rate : 423 kb/s Channel(s) : 6 channels Channel positions : Front: L C R, Side: L R, LFE Sampling rate : 48.0 kHz Frame rate : 46.875 FPS (1024 spf) Compression mode : Lossy Delay relative to video : 11 ms Stream size : 76.1 MiB (20%) Title : j Language : Japanese Default : No Forced : No Text [\#1](//www.nyaa.se/?page=view&tid=1) ID : 4 Format : ASS Codec ID : S\_TEXT/ASS Codec ID/Info : Advanced Sub Station Alpha Duration : 22 min 4 s Bit rate : 63 b/s Count of elements : 36 Compression mode : Lossless Stream size : 10.3 KiB (0%) Title : Signs \[voss\] Language : English Default : Yes Forced : No Text [\#2](//www.nyaa.se/?page=view&tid=2) ID : 5 Format : ASS Codec ID : S\_TEXT/ASS Codec ID/Info : Advanced Sub Station Alpha Duration : 24 min 35 s Bit rate : 152 b/s Count of elements : 362 Compression mode : Lossless Stream size : 27.5 KiB (0%) Title : Subtitles \[voss\] Language : Japanese Default : No Forced : No Menu [\#1](//www.nyaa.se/?page=view&tid=1) 00:00:00.000 : en:Intro 00:02:28.273 : en:Episode 00:23:10.472 : en:Ending 00:24:40.521 : en:Preview Menu [\#2](//www.nyaa.se/?page=view&tid=2) 00:00:00.054 : en:00:00:00.054 **CTR Releases:** Collecting the best available sources around the internet and packing them up so you don't have to. My releases cater specifically to English audio viewers, though Japanese viewers are of course welcome. More details can be found on the individual release threads or at [my index](http://kametsu.com/topic/54803-the-ctr-index-your-new-home-for-bloated-1080p-dual-audio-releases/) on Kametsu, where you can also pitch me on whatever shows I go after next. Enjoy. -ctr

File list

  • Noein.S01.DVDRip.AAC5.1.x264-CTR
    • Noein.S01E01.DVDRip.AAC5.1.x264-CTR.[C0E8EB16].mkv (386.0 MiB)
    • Noein.S01E02.DVDRip.AAC5.1.x264-CTR.[14D13415].mkv (388.5 MiB)
    • Noein.S01E03.DVDRip.AAC5.1.x264-CTR.[928B2C6E].mkv (385.6 MiB)
    • Noein.S01E04.DVDRip.AAC5.1.x264-CTR.[48D8821B].mkv (393.4 MiB)
    • Noein.S01E05.DVDRip.AAC5.1.x264-CTR.[EA2C6180].mkv (393.6 MiB)
    • Noein.S01E06.DVDRip.AAC5.1.x264-CTR.[1637E963].mkv (389.6 MiB)
    • Noein.S01E07.DVDRip.AAC5.1.x264-CTR.[FA67F42A].mkv (394.8 MiB)
    • Noein.S01E08.DVDRip.AAC5.1.x264-CTR.[613B6C2D].mkv (381.1 MiB)
    • Noein.S01E09.DVDRip.AAC5.1.x264-CTR.[CF6EC44B].mkv (382.7 MiB)
    • Noein.S01E10.DVDRip.AAC5.1.x264-CTR.[59C41CF0].mkv (388.5 MiB)
    • Noein.S01E11.DVDRip.AAC5.1.x264-CTR.[96B05699].mkv (391.8 MiB)
    • Noein.S01E12.DVDRip.AAC5.1.x264-CTR.[6274A10D].mkv (397.4 MiB)
    • Noein.S01E13.DVDRip.AAC5.1.x264-CTR.[A920537B].mkv (387.1 MiB)
    • Noein.S01E14.DVDRip.AAC5.1.x264-CTR.[607A0C4C].mkv (389.8 MiB)
    • Noein.S01E15.DVDRip.AAC5.1.x264-CTR.[020B815F].mkv (393.1 MiB)
    • Noein.S01E16.DVDRip.AAC5.1.x264-CTR.[9F31D66F].mkv (394.1 MiB)
    • Noein.S01E17.DVDRip.AAC5.1.x264-CTR.[CFB036CB].mkv (387.8 MiB)
    • Noein.S01E18.DVDRip.AAC5.1.x264-CTR.[E8C42900].mkv (392.0 MiB)
    • Noein.S01E19.DVDRip.AAC5.1.x264-CTR.[609C5A06].mkv (390.7 MiB)
    • Noein.S01E20.DVDRip.AAC5.1.x264-CTR.[92BBC7EC].mkv (386.1 MiB)
    • Noein.S01E21.DVDRip.AAC5.1.x264-CTR.[E828B1B8].mkv (383.8 MiB)
    • Noein.S01E22.DVDRip.AAC5.1.x264-CTR.[AB4659DD].mkv (385.0 MiB)
    • Noein.S01E23.DVDRip.AAC5.1.x264-CTR.[40AB4F07].mkv (391.8 MiB)
    • Noein.S01E24.DVDRip.AAC5.1.x264-CTR.[1F92870C].mkv (394.3 MiB)