The Twelve Kingdoms S01 1080p Hi10p BluRay FLAC2.0 x264 [CTR] (English Dubbed Dual Audio) (Juuni Kokuki)

Category:
Date:
2016-11-19 15:17 UTC
Submitter:
Seeders:
16
File size:
69.3 GiB
Completed:
861
Info hash:
0bff116ee808e4b8345de0ca4e643e6efe9c3544
![Image](https://i.gyazo.com/55029b9beaf1b726a6e21145415be533.png) **[Release Thread](https://nanda.to/topic/582-ctr-the-twelve-kingdoms-juuni-kokuki-2002/) | [CTR Release Index](http://kametsu.com/topic/54803-the-ctr-index-your-new-home-for-bloated-1080p-dual-audio-releases/)** _~unfinished greatness~_ ![Image](http://kametsu.com/images/downloads/info.png) `<br></br>Video Track: 1080p-Hi10p (HQR)<br></br><br></br>Audio Track 1 (Default): English 2.0 FLAC (Hark0n)<br></br>Audio Track 2: Japanese 5.1 FLAC (Hark0n)<br></br><br></br>Subtitle Track 1 (Default): English Signs (.ASS) (KAA)<br></br>Subtitle Track 2: English Dialogue (.ASS) (KAA)<br></br><br></br>Chapters<br></br>` This one's a long time coming, but I've finally gotten around to putting it together. Today we're collecting video from HQR, selected as the best 10-bit encode available (which helps with some banding issues found on non 10-bit encodes such as Joseole's). Audio comes from Hark0n, with special thanks for actually doing the audio syncing (saving me a ton of work). Finally, subtitles (also synced by Hark0n; basically I just stole his release with minor modifications... with permission!) are sourced from KAA (which is actually the R1 script, just with added karaoke on the ED and styling). We didn't much care for the styling on the subtitles, however, so I've included restyled dialogue courtesy of Koby, here on Kametsu. In addition, I've gone through and done QC on the subtitles to an extent (mostly signs where available). No 720p this time, since the primary purpose of this project was a final definitive full quality release with FLAC audio. An acceptable remux from Joseole/TCL is around, which has the exact same script, albeit different styling. I'd pick that up instead if you're looking for smaller filesizes. **DISCLAIMER**: This series is unfinished! It is not likely to be continued (being from 2003), and does kind of trail off, unlike NANA. However, there are definitely arcs worth watching, and the worldbuilding is very memorable if nothing else. I enjoyed it, and don't regret watching it. I don't think you will either. Enjoy - CTR General Unique ID : 170712717826428776408490134223591797660 (0x806E12D1E07185BF943ECBEB59D3739C) Complete name : S:\\Anime\\The Twelve Kingdoms\\Season 1\\The.Twelve.Kingdoms.S01E01.1080p-Hi10p.BluRay.FLAC2.0.x264-CTR.\[756B0532\].mkv Format : Matroska Format version : Version 4 / Version 2 File size : 1.25 GiB Duration : 25 min 4 s Overall bit rate mode : Variable Overall bit rate : 7 110 kb/s Movie name : Episode 01: Shadow of the Moon,the Sea of Shadow - Chapter One Encoded date : UTC 2016-10-31 01:51:44 Writing application : mkvmerge v9.5.0 ('Quiet Fire') 64bit Writing library : libebml v1.3.4 + libmatroska v1.4.5 Attachments : MinionPro-Bold.otf / MTCORSVA.TTF / Oil On The Water.ttf / soutaneregular.ttf / Arial Rounded MT.ttf / arial.ttf / arialbd.ttf / ariali.ttf / BRUSHED.TTF / corbel.ttf / Eager\_Naturalist.ttf / msmincho.ttc Video ID : 1 Format : AVC Format/Info : Advanced Video Codec Format profile : High 10@L4.1 Format settings, CABAC : Yes Format settings, ReFrames : 4 frames Codec ID : V\_MPEG4/ISO/AVC Duration : 25 min 2 s Bit rate : 4 732 kb/s Width : 1 440 pixels Height : 1 080 pixels Display aspect ratio : 4:3 Frame rate mode : Constant Frame rate : 23.976 (24000/1001) FPS Color space : YUV Chroma subsampling : 4:2:0 Bit depth : 10 bits Scan type : Progressive Bits/(Pixel\*Frame) : 0.127 Stream size : 848 MiB (66%) Title : \[HQR\] Writing library : x264 core 129 r2230 1cffe9f Encoding settings : cabac=1 / ref=4 / deblock=1:-3:-3 / analyse=0x3:0x133 / me=umh / subme=9 / psy=1 / psy\_rd=0.85:0.15 / mixed\_ref=1 / me\_range=24 / chroma\_me=1 / trellis=2 / 8x8dct=1 / cqm=0 / deadzone=21,11 / fast\_pskip=1 / chroma\_qp\_offset=-3 / threads=6 / lookahead\_threads=1 / sliced\_threads=0 / nr=0 / decimate=0 / interlaced=0 / bluray\_compat=0 / constrained\_intra=0 / bframes=9 / b\_pyramid=2 / b\_adapt=2 / b\_bias=0 / direct=3 / weightb=1 / open\_gop=0 / weightp=2 / keyint=240 / keyint\_min=24 / scenecut=40 / intra\_refresh=0 / rc\_lookahead=40 / rc=crf / mbtree=0 / crf=16.0 / qcomp=0.75 / qpmin=0 / qpmax=32 / qpstep=4 / vbv\_maxrate=40000 / vbv\_bufsize=62500 / crf\_max=0.0 / nal\_hrd=none / ip\_ratio=1.40 / pb\_ratio=1.30 / aq=1:0.70 Language : Japanese Default : Yes Forced : No Color range : Limited Color primaries : BT.709 Transfer characteristics : BT.709 Matrix coefficients : BT.709 Audio [\#1](//www.nyaa.se/?page=view&tid=1) ID : 2 Format : FLAC Format/Info : Free Lossless Audio Codec Codec ID : A\_FLAC Duration : 25 min 4 s Bit rate mode : Variable Bit rate : 703 kb/s Channel(s) : 2 channels Channel positions : Front: L R Sampling rate : 48.0 kHz Frame rate : 11.719 FPS (4096 spf) Bit depth : 16 bits Stream size : 126 MiB (10%) Title : FLAC 2.0 \[Hark0n\] Writing library : libFLAC 1.2.1 (UTC 2007-09-17) Language : English Default : Yes Forced : No Audio [\#2](//www.nyaa.se/?page=view&tid=2) ID : 3 Format : FLAC Format/Info : Free Lossless Audio Codec Codec ID : A\_FLAC Duration : 25 min 4 s Bit rate mode : Variable Bit rate : 1 608 kb/s Channel(s) : 6 channels Channel positions : Front: L C R, Side: L R, LFE Sampling rate : 48.0 kHz Frame rate : 11.719 FPS (4096 spf) Bit depth : 16 bits Stream size : 288 MiB (23%) Title : FLAC 5.1 \[HQR\] Writing library : libFLAC 1.2.1 (UTC 2007-09-17) Language : Japanese Default : No Forced : No Text [\#1](//www.nyaa.se/?page=view&tid=1) ID : 4 Format : ASS Codec ID : S\_TEXT/ASS Codec ID/Info : Advanced Sub Station Alpha Duration : 24 min 50 s Bit rate : 27 b/s Count of elements : 56 Compression mode : Lossless Stream size : 4.98 KiB (0%) Title : Signs \[KAA\] Language : English Default : Yes Forced : No Text [\#2](//www.nyaa.se/?page=view&tid=2) ID : 5 Format : ASS Codec ID : S\_TEXT/ASS Codec ID/Info : Advanced Sub Station Alpha Duration : 24 min 50 s Bit rate : 102 b/s Count of elements : 377 Compression mode : Lossless Stream size : 18.7 KiB (0%) Title : Subtitles \[KAA\] Language : Japanese Default : No Forced : No Menu 00:00:00.000 : en:Opening 00:01:36.070 : en:Part A 00:10:49.232 : en:Part B 00:23:12.016 : en:Ending 00:24:46.026 : en:Preview **CTR Releases:** Collecting the best available sources around the internet and packing them up so you don't have to. My releases cater specifically to English audio viewers, though Japanese viewers are of course welcome. More details can be found on the individual release threads or at [my index](http://kametsu.com/topic/54803-the-ctr-index-your-new-home-for-bloated-1080p-dual-audio-releases/) on Kametsu, where you can also pitch me on whatever shows I go after next. Enjoy. -ctr

File list

  • The.Twelve.Kingdoms.S01.1080p-Hi10p.BluRay.FLAC2.0.x264-CTR
    • The.Twelve.Kingdoms.S01E01.1080p-Hi10p.BluRay.FLAC2.0.x264-CTR.[756B0532].mkv (1.2 GiB)
    • The.Twelve.Kingdoms.S01E02.1080p-Hi10p.BluRay.FLAC2.0.x264-CTR.[71161E0C].mkv (1.7 GiB)
    • The.Twelve.Kingdoms.S01E03.1080p-Hi10p.BluRay.FLAC2.0.x264-CTR.[765D1D75].mkv (1.5 GiB)
    • The.Twelve.Kingdoms.S01E04.1080p-Hi10p.BluRay.FLAC2.0.x264-CTR.[8AD5CE06].mkv (1.8 GiB)
    • The.Twelve.Kingdoms.S01E05.1080p-Hi10p.BluRay.FLAC2.0.x264-CTR.[3420D5FC].mkv (1.9 GiB)
    • The.Twelve.Kingdoms.S01E06.1080p-Hi10p.BluRay.FLAC2.0.x264-CTR.[38F9A7AD].mkv (1.6 GiB)
    • The.Twelve.Kingdoms.S01E07.1080p-Hi10p.BluRay.FLAC2.0.x264-CTR.[74E987BC].mkv (1.7 GiB)
    • The.Twelve.Kingdoms.S01E08.1080p-Hi10p.BluRay.FLAC2.0.x264-CTR.[CB9DC479].mkv (1.6 GiB)
    • The.Twelve.Kingdoms.S01E09.1080p-Hi10p.BluRay.FLAC2.0.x264-CTR.[5311F46D].mkv (1.8 GiB)
    • The.Twelve.Kingdoms.S01E10.1080p-Hi10p.BluRay.FLAC2.0.x264-CTR.[357924E9].mkv (1.6 GiB)
    • The.Twelve.Kingdoms.S01E11.1080p-Hi10p.BluRay.FLAC2.0.x264-CTR.[E2506873].mkv (1.6 GiB)
    • The.Twelve.Kingdoms.S01E12.1080p-Hi10p.BluRay.FLAC2.0.x264-CTR.[0CE37B56].mkv (1.6 GiB)
    • The.Twelve.Kingdoms.S01E13.1080p-Hi10p.BluRay.FLAC2.0.x264-CTR.[21E9A38C].mkv (1.5 GiB)
    • The.Twelve.Kingdoms.S01E14.1080p-Hi10p.BluRay.FLAC2.0.x264-CTR.[CA7B8B8B].mkv (2.0 GiB)
    • The.Twelve.Kingdoms.S01E15.1080p-Hi10p.BluRay.FLAC2.0.x264-CTR.[1FAC33B4].mkv (1.7 GiB)
    • The.Twelve.Kingdoms.S01E16.1080p-Hi10p.BluRay.FLAC2.0.x264-CTR.[3B127624].mkv (1.5 GiB)
    • The.Twelve.Kingdoms.S01E17.1080p-Hi10p.BluRay.FLAC2.0.x264-CTR.[A8FAC335].mkv (1.4 GiB)
    • The.Twelve.Kingdoms.S01E18.1080p-Hi10p.BluRay.FLAC2.0.x264-CTR.[E53F0F4C].mkv (1.4 GiB)
    • The.Twelve.Kingdoms.S01E19.1080p-Hi10p.BluRay.FLAC2.0.x264-CTR.[07B986D3].mkv (2.0 GiB)
    • The.Twelve.Kingdoms.S01E20.1080p-Hi10p.BluRay.FLAC2.0.x264-CTR.[56F35011].mkv (1.4 GiB)
    • The.Twelve.Kingdoms.S01E21.1080p-Hi10p.BluRay.FLAC2.0.x264-CTR.[116C9C26].mkv (2.3 GiB)
    • The.Twelve.Kingdoms.S01E22.1080p-Hi10p.BluRay.FLAC2.0.x264-CTR.[694C92FB].mkv (1.3 GiB)
    • The.Twelve.Kingdoms.S01E23.1080p-Hi10p.BluRay.FLAC2.0.x264-CTR.[0EE9F623].mkv (1.8 GiB)
    • The.Twelve.Kingdoms.S01E24.1080p-Hi10p.BluRay.FLAC2.0.x264-CTR.[CD6E1696].mkv (1.5 GiB)
    • The.Twelve.Kingdoms.S01E25.1080p-Hi10p.BluRay.FLAC2.0.x264-CTR.[8EF83FAE].mkv (1.4 GiB)
    • The.Twelve.Kingdoms.S01E26.1080p-Hi10p.BluRay.FLAC2.0.x264-CTR.[E99C5FF2].mkv (1.7 GiB)
    • The.Twelve.Kingdoms.S01E27.1080p-Hi10p.BluRay.FLAC2.0.x264-CTR.[B0F3F917].mkv (1.4 GiB)
    • The.Twelve.Kingdoms.S01E28.1080p-Hi10p.BluRay.FLAC2.0.x264-CTR.[79E4BC56].mkv (1.5 GiB)
    • The.Twelve.Kingdoms.S01E29.1080p-Hi10p.BluRay.FLAC2.0.x264-CTR.[97C94AA3].mkv (1.6 GiB)
    • The.Twelve.Kingdoms.S01E30.1080p-Hi10p.BluRay.FLAC2.0.x264-CTR.[63505AB4].mkv (1.5 GiB)
    • The.Twelve.Kingdoms.S01E31.1080p-Hi10p.BluRay.FLAC2.0.x264-CTR.[5167D55A].mkv (1.7 GiB)
    • The.Twelve.Kingdoms.S01E32.1080p-Hi10p.BluRay.FLAC2.0.x264-CTR.[6FD03670].mkv (1.3 GiB)
    • The.Twelve.Kingdoms.S01E33.1080p-Hi10p.BluRay.FLAC2.0.x264-CTR.[9D01F39B].mkv (1.4 GiB)
    • The.Twelve.Kingdoms.S01E34.1080p-Hi10p.BluRay.FLAC2.0.x264-CTR.[52CA390A].mkv (1.5 GiB)
    • The.Twelve.Kingdoms.S01E35.1080p-Hi10p.BluRay.FLAC2.0.x264-CTR.[C7441970].mkv (1.3 GiB)
    • The.Twelve.Kingdoms.S01E36.1080p-Hi10p.BluRay.FLAC2.0.x264-CTR.[F7CCE256].mkv (1.5 GiB)
    • The.Twelve.Kingdoms.S01E37.1080p-Hi10p.BluRay.FLAC2.0.x264-CTR.[9122FFA2].mkv (1.5 GiB)
    • The.Twelve.Kingdoms.S01E38.1080p-Hi10p.BluRay.FLAC2.0.x264-CTR.[71CA9757].mkv (1.5 GiB)
    • The.Twelve.Kingdoms.S01E39.1080p-Hi10p.BluRay.FLAC2.0.x264-CTR.[452ECCF8].mkv (1.3 GiB)
    • The.Twelve.Kingdoms.S01E40.1080p-Hi10p.BluRay.FLAC2.0.x264-CTR.[B82CFF9D].mkv (1.3 GiB)
    • The.Twelve.Kingdoms.S01E41.1080p-Hi10p.BluRay.FLAC2.0.x264-CTR.[6BF328D5].mkv (1.4 GiB)
    • The.Twelve.Kingdoms.S01E42.1080p-Hi10p.BluRay.FLAC2.0.x264-CTR.[C510EB5A].mkv (1.3 GiB)
    • The.Twelve.Kingdoms.S01E43.1080p-Hi10p.BluRay.FLAC2.0.x264-CTR.[E750F6B6].mkv (1.3 GiB)
    • The.Twelve.Kingdoms.S01E44.1080p-Hi10p.BluRay.FLAC2.0.x264-CTR.[5D530E84].mkv (1.3 GiB)
    • The.Twelve.Kingdoms.S01E45.1080p-Hi10p.BluRay.FLAC2.0.x264-CTR.[8A22BD58].mkv (1.4 GiB)
Great work and continue to seed everyone :)
wow! This old anime is more popular than I thought.