Hunter x Hunter 2011 S01E13 Recap 1080p Hi10p BluRay FLAC2.0 x264 [CTR] [5448C57D].mkv (English Dubbed Dual Audio)

Category:
Date:
2016-11-08 12:07 UTC
Submitter:
Seeders:
0
File size:
866.5 MiB
Completed:
404
Info hash:
4c9aef628f454ce04bffaf178781e3d9bfe808b4
![Image](https://i.gyazo.com/9823ef8c33f495e1608a00d49815af34.png) **[←Volume 1](https://www.nyaa.se/?page=view&tid=866010)** **[720p Option➙](https://www.nyaa.se/?page=view&tid=868531)** **[Release Thread](http://kametsu.com/topic/56060-megatorrent-ctr-hunter-x-hunter-2011-720p-10bit-1080p-10bitaac-20-flac-20dual-audio-the-three-year-thread/) | [CTR Release Index](http://kametsu.com/topic/54803-the-ctr-index-your-new-home-for-bloated-1080p-dual-audio-releases/)** _~a brief side quest~_ ![Image](http://kametsu.com/images/downloads/info.png) `<br></br>Video Track: 720p-Hi10p | 1080p-Hi10p (Etzimal)<br></br><br></br>Audio Track 1 (Default): English 2.0 AAC | 2.0 FLAC (Etzimal)<br></br>Audio Track 2: Japanese 2.0 AAC | 2.0 FLAC (Etzimal)<br></br><br></br>Subtitle Track 1 (Default): English Signs(.ASS) (Coalgirls)<br></br>Subtitle Track 2: English Dialogue (.ASS) (Coalgirls)<br></br><br></br>Chapters<br></br>` The first recap! This is in a separate torrent since I'm sure most people don't care about it. However, since the JPBDs did not include this episode, we've encoded it from the USBD instead. Special thanks to Etzimal for the encode. I've merged over the subtitles from Coalgirl's TV release and retimed them to match the BD here. General Unique ID : 183779555431281910780197118272244701321 (0x8A42A7A75692E008B3460CDCA6525889) Complete name : S:\\Anime\\Hunter x Hunter (2011)\\Season 1\\Hunter.x.Hunter.2011.S01E13.Recap.1080p-Hi10p.BluRay.FLAC2.0.x264-CTR.\[5448C57D\].mkv Format : Matroska Format version : Version 4 / Version 2 File size : 866 MiB Duration : 23 min 35 s Overall bit rate mode : Variable Overall bit rate : 5 137 kb/s Movie name : Hunter X Hunter - 13 Encoded date : UTC 2016-11-08 17:41:49 Writing application : mkvmerge v9.5.0 ('Quiet Fire') 64bit Writing library : libebml v1.3.4 + libmatroska v1.4.5 Attachments : HunterxHunterOP.ttf / Nicotine Stains.ttf / Profile-Medium.otf / Profile-Regular.otf / Prototype.ttf / ariblk.ttf / ARLRDBD.TTF Video ID : 1 Format : AVC Format/Info : Advanced Video Codec Format profile : High 10@L5.1 Format settings, CABAC : Yes Format settings, ReFrames : 16 frames Codec ID : V\_MPEG4/ISO/AVC Duration : 23 min 35 s Bit rate : 3 733 kb/s Width : 1 920 pixels Height : 1 080 pixels Display aspect ratio : 16:9 Frame rate mode : Constant Frame rate : 23.976 (24000/1001) FPS Color space : YUV Chroma subsampling : 4:2:0 Bit depth : 10 bits Scan type : Progressive Bits/(Pixel\*Frame) : 0.075 Stream size : 630 MiB (73%) Title : \[Etzimal\] Writing library : x264 core 148 r2638kMod 7599210 Encoding settings : cabac=1 / ref=16 / deblock=1:1:1 / analyse=0x3:0x133 / me=umh / subme=10 / psy=1 / fade\_compensate=1.00 / psy\_rd=0.75:0.00 / mixed\_ref=1 / me\_range=32 / chroma\_me=1 / trellis=2 / 8x8dct=1 / cqm=0 / deadzone=21,11 / fast\_pskip=0 / chroma\_qp\_offset=-6 / threads=12 / lookahead\_threads=3 / sliced\_threads=0 / nr=0 / decimate=0 / interlaced=0 / bluray\_compat=0 / constrained\_intra=0 / fgo=0 / bframes=16 / b\_pyramid=2 / b\_adapt=2 / b\_bias=0 / direct=3 / weightb=1 / open\_gop=0 / weightp=2 / keyint=250 / keyint\_min=23 / scenecut=40 / intra\_refresh=0 / rc\_lookahead=40 / rc=crf / mbtree=1 / crf=16.0000 / qcomp=0.60 / qpmin=0 / qpmax=51 / qpstep=4 / ip\_ratio=1.40 / aq=3:1.00 Language : English Default : Yes Forced : No Color range : Limited Matrix coefficients : BT.709 Audio [\#1](//www.nyaa.se/?page=view&tid=1) ID : 2 Format : FLAC Format/Info : Free Lossless Audio Codec Codec ID : A\_FLAC Duration : 23 min 35 s Bit rate mode : Variable Bit rate : 702 kb/s Channel(s) : 2 channels Sampling rate : 48.0 kHz Frame rate : 11.719 FPS (4096 spf) Bit depth : 16 bits Stream size : 118 MiB (14%) Title : FLAC 2.0 \[Etzimal\] Writing library : libFLAC 1.2.1 (UTC 2007-09-17) Language : English Default : Yes Forced : No Audio [\#2](//www.nyaa.se/?page=view&tid=2) ID : 3 Format : FLAC Format/Info : Free Lossless Audio Codec Codec ID : A\_FLAC Duration : 23 min 35 s Bit rate mode : Variable Bit rate : 693 kb/s Channel(s) : 2 channels Sampling rate : 48.0 kHz Frame rate : 11.719 FPS (4096 spf) Bit depth : 16 bits Stream size : 117 MiB (13%) Title : FLAC 2.0 \[Etzimal\] Writing library : libFLAC 1.2.1 (UTC 2007-09-17) Language : Japanese Default : No Forced : No Text [\#1](//www.nyaa.se/?page=view&tid=1) ID : 4 Format : ASS Codec ID : S\_TEXT/ASS Codec ID/Info : Advanced Sub Station Alpha Duration : 22 min 39 s Bit rate : 21 b/s Count of elements : 61 Compression mode : Lossless Stream size : 3.57 KiB (0%) Title : Signs \[Coalgirls\] Language : English Default : Yes Forced : No Text [\#2](//www.nyaa.se/?page=view&tid=2) ID : 5 Format : ASS Codec ID : S\_TEXT/ASS Codec ID/Info : Advanced Sub Station Alpha Duration : 23 min 29 s Bit rate : 105 b/s Count of elements : 353 Compression mode : Lossless Stream size : 18.2 KiB (0%) Title : Subtitles \[Coalgirls\] Language : Japanese Default : No Forced : No Menu 00:00:00.000 : en:Prologue 00:00:33.993 : en:Opening 00:01:53.990 : en:Part A 00:11:08.127 : en:Part B 00:22:00.153 : en:Ending 00:23:20.191 : en:Preview **CTR Releases:** Collecting the best available sources around the internet and packing them up so you don't have to. My releases cater specifically to English audio viewers, though Japanese viewers are of course welcome. More details can be found on the individual release threads or at [my index](http://kametsu.com/topic/54803-the-ctr-index-your-new-home-for-bloated-1080p-dual-audio-releases/) on Kametsu, where you can also pitch me on whatever shows I go after next. Enjoy. -ctr

File list

  • Hunter.x.Hunter.2011.S01E13.Recap.1080p-Hi10p.BluRay.FLAC2.0.x264-CTR.[5448C57D].mkv (866.5 MiB)