Serial Experiments Lain S01 1080p Hi10p BluRay FLAC2.0 x264 [CTR] (English Dubbed Dual Audio)

Category:
Date:
2016-11-03 21:09 UTC
Submitter:
Seeders:
9
File size:
20.2 GiB
Completed:
1134
Info hash:
5734e3386b7633c898b79551d243864079ac0c59
![Image](https://i.gyazo.com/4a8312613d280bf075fc440abb7a2929.png) **[Release Thread](http://kametsu.com/topic/56108-megatorrent-ctr-serial-experiments-lain-bd-1080p-10bitflac-20-dual-audio-ordered-chapters-begone/) | [CTR Release Index](http://kametsu.com/topic/54803-the-ctr-index-your-new-home-for-bloated-1080p-dual-audio-releases/)** _~avant-garde to a fault~_ ![Image](http://kametsu.com/images/downloads/info.png) **UPDATE (2016-11-03)**:Episode 3 has mismatched Signs and Subtitles tracks. Apologies. Select the reverse for that episode. `<br></br>Video Track: 1080p-Hi10p (NP-Complete) (Ordered chapters removed)<br></br><br></br>Audio Track 1 (Default): English 2.0 FLAC (NP-Complete)<br></br>Audio Track 2: Japanese 2.0 FLAC (NP-Complete)<br></br><br></br>Subtitle Track 1 (Default): English Signs (.ASS) (Coalgirls)<br></br>Subtitle Track 2: English Dialogue (.ASS) (Coalgirls)<br></br><br></br>Chapters<br></br>` This is a very simple release. All I've done is taken NP-Complete's encode and removed the ordered chapters. Episode 8 required a bit of re-encoding to fix, special thanks to Baal for taking care of that. NP-Complete's subtitles were taken from Coalgirls release, which was originally based on the R1 subs from the DVDs. I've rearranged and relabeled the tracks to accommodate English viewers, as usual. General Unique ID : 229737831547802607220220199669760326259 (0xACD5E59C220BA58E8E9B08136908FA73) Complete name : S:\\Anime\\Serial Experiments Lain\\Season 1\\Serial.Experiments.Lain.S01.1080p-Hi10p.BluRay.FLAC2.0.x264-CTR\\Serial.Experiments.Lain.S01E01.1080p-Hi10p.BluRay.FLAC2.0.x264-CTR.\[9438E0CC\].mkv Format : Matroska Format version : Version 4 / Version 2 File size : 1.33 GiB Duration : 23 min 57 s Overall bit rate mode : Variable Overall bit rate : 7 925 kb/s Encoded date : UTC 2016-11-01 17:45:00 Writing application : mkvmerge v9.5.0 ('Quiet Fire') 64bit Writing library : libebml v1.3.4 + libmatroska v1.4.5 Attachments : Mahou Shoujo Lyrical Nanoha - 01 - Is This What You Call a Mysterious Encounter \[C23D264E\]\_Chapters.xml / HelveticaNeueLTCom-MdCn.ttf / Inkburro.ttf Video ID : 1 Format : AVC Format/Info : Advanced Video Codec Format profile : High 10@L5 Format settings, CABAC : Yes Format settings, ReFrames : 16 frames Codec ID : V\_MPEG4/ISO/AVC Duration : 23 min 57 s Bit rate : 6 863 kb/s Width : 1 512 pixels Height : 1 072 pixels Display aspect ratio : 1.410 Frame rate mode : Constant Frame rate : 23.976 (24000/1001) FPS Color space : YUV Chroma subsampling : 4:2:0 Bit depth : 10 bits Scan type : Progressive Bits/(Pixel\*Frame) : 0.177 Stream size : 1.15 GiB (87%) Title : \[NP-Complete\] Writing library : x264 core 116 r2074 2641b9e Encoding settings : cabac=1 / ref=16 / deblock=1:0:0 / analyse=0x3:0x133 / me=umh / subme=9 / psy=1 / psy\_rd=1.00:0.00 / mixed\_ref=1 / me\_range=32 / chroma\_me=1 / trellis=0 / 8x8dct=1 / cqm=0 / deadzone=14,8 / fast\_pskip=0 / chroma\_qp\_offset=-2 / threads=12 / sliced\_threads=0 / nr=0 / decimate=0 / interlaced=0 / bluray\_compat=0 / constrained\_intra=0 / bframes=8 / b\_pyramid=2 / b\_adapt=2 / b\_bias=0 / direct=3 / weightb=1 / open\_gop=0 / weightp=2 / keyint=250 / keyint\_min=23 / scenecut=40 / intra\_refresh=0 / rc=crf / mbtree=0 / crf=18.0 / qcomp=0.60 / qpmin=0 / qpmax=81 / qpstep=4 / ip\_ratio=1.40 / pb\_ratio=1.30 / aq=2:1.00 Language : Japanese Default : Yes Forced : No Audio [\#1](//www.nyaa.se/?page=view&tid=1) ID : 2 Format : FLAC Format/Info : Free Lossless Audio Codec Codec ID : A\_FLAC Duration : 23 min 57 s Bit rate mode : Variable Bit rate : 530 kb/s Channel(s) : 2 channels Sampling rate : 48.0 kHz Frame rate : 11.719 FPS (4096 spf) Bit depth : 16 bits Stream size : 90.9 MiB (7%) Title : FLAC 2.0 \[NPC\] Writing library : libFLAC 1.2.1 (UTC 2007-09-17) Language : English Default : Yes Forced : No Audio [\#2](//www.nyaa.se/?page=view&tid=2) ID : 3 Format : FLAC Format/Info : Free Lossless Audio Codec Codec ID : A\_FLAC Duration : 23 min 57 s Bit rate mode : Variable Bit rate : 528 kb/s Channel(s) : 2 channels Sampling rate : 48.0 kHz Frame rate : 11.719 FPS (4096 spf) Bit depth : 16 bits Stream size : 90.5 MiB (7%) Title : FLAC 2.0 \[NPC\] Writing library : libFLAC 1.2.1 (UTC 2007-09-17) Language : Japanese Default : No Forced : No Text [\#1](//www.nyaa.se/?page=view&tid=1) ID : 4 Format : ASS Codec ID : S\_TEXT/ASS Codec ID/Info : Advanced Sub Station Alpha Duration : 23 min 51 s Bit rate : 37 b/s Count of elements : 88 Compression mode : Lossless Stream size : 6.58 KiB (0%) Title : Signs \[Coalgirls\] Language : English Default : Yes Forced : No Text [\#2](//www.nyaa.se/?page=view&tid=2) ID : 5 Format : ASS Codec ID : S\_TEXT/ASS Codec ID/Info : Advanced Sub Station Alpha Duration : 23 min 51 s Bit rate : 71 b/s Count of elements : 191 Compression mode : Lossless Stream size : 12.5 KiB (0%) Title : Subtitles \[Coalgirls\] Language : Japanese Default : No Forced : No Menu 00:00:00.000 : en:Opening 00:01:59.620 : en:Episode 00:22:18.422 : en:Ending **CTR Releases:** Collecting the best available sources around the internet and packing them up so you don't have to. My releases cater specifically to English audio viewers, though Japanese viewers are of course welcome. More details can be found on the individual release threads or at [my index](http://kametsu.com/topic/54803-the-ctr-index-your-new-home-for-bloated-1080p-dual-audio-releases/) on Kametsu, where you can also pitch me on whatever shows I go after next. Enjoy. -ctr

File list

  • Serial.Experiments.Lain.S01.1080p-Hi10p.BluRay.FLAC2.0.x264-CTR
    • Serial.Experiments.Lain.S01E01.1080p-Hi10p.BluRay.FLAC2.0.x264-CTR.[9438E0CC].mkv (1.3 GiB)
    • Serial.Experiments.Lain.S01E02.1080p-Hi10p.BluRay.FLAC2.0.x264-CTR.[2B3BCC83].mkv (1.7 GiB)
    • Serial.Experiments.Lain.S01E03.1080p-Hi10p.BluRay.FLAC2.0.x264-CTR.[B50DDB3B].mkv (1.7 GiB)
    • Serial.Experiments.Lain.S01E04.1080p-Hi10p.BluRay.FLAC2.0.x264-CTR.[F8B918B0].mkv (1.6 GiB)
    • Serial.Experiments.Lain.S01E05.1080p-Hi10p.BluRay.FLAC2.0.x264-CTR.[6080F386].mkv (1.4 GiB)
    • Serial.Experiments.Lain.S01E06.1080p-Hi10p.BluRay.FLAC2.0.x264-CTR.[F0D91B9D].mkv (1.8 GiB)
    • Serial.Experiments.Lain.S01E07.1080p-Hi10p.BluRay.FLAC2.0.x264-CTR.[2FBC1D8B].mkv (1.5 GiB)
    • Serial.Experiments.Lain.S01E08.1080p-Hi10p.BluRay.FLAC2.0.x264-CTR.[488BDBC4].mkv (1.5 GiB)
    • Serial.Experiments.Lain.S01E09.1080p-Hi10p.BluRay.FLAC2.0.x264-CTR.[573E7536].mkv (2.0 GiB)
    • Serial.Experiments.Lain.S01E10.1080p-Hi10p.BluRay.FLAC2.0.x264-CTR.[FF19A722].mkv (1.2 GiB)
    • Serial.Experiments.Lain.S01E11.1080p-Hi10p.BluRay.FLAC2.0.x264-CTR.[C2C09FEB].mkv (1.4 GiB)
    • Serial.Experiments.Lain.S01E12.1080p-Hi10p.BluRay.FLAC2.0.x264-CTR.[2A29F3A7].mkv (1.4 GiB)
    • Serial.Experiments.Lain.S01E13.1080p-Hi10p.BluRay.FLAC2.0.x264-CTR.[C471F3ED].mkv (1.5 GiB)
2018 v2 of this release is on Moodkiller's XDCC: https://animk.info/xdcc/?search=Serial%20Lain%201080p%20v2%20CTR And also direct download from nandato?: https://nanda.to/topic/890-ctr-serial-experiments-lain-1998/
Why did you crop the release? It's not 1520x1080