Blood Blockade Battlefront S01 PROPER 1080p Hi10p BluRay FLAC5.1 x264 [CTR] (English Dubbed Dual Audio) (Kekkai Sensen)

Category:
Date:
2016-10-23 21:56 UTC
Submitter:
Seeders:
4
File size:
27.2 GiB
Completed:
902
Info hash:
c3cf20498a5aea47a5ab5e76d9cc248cbd95b9cf
![Image](https://i.gyazo.com/d6b0f098bfd1960dbeb8a524719b58e3.png) **[720p Optionâž™](https://www.nyaa.se/?page=view&tid=863297)** **[Release Thread](http://kametsu.com/topic/55986-torrent-ctr-blood-blockade-battlefront-kekkai-sensen-bd-720p-10bit-1080p-10bitaac-51-flac-51dual-audio-reports-of-my-death-were-greatly-exaggerated/) | [CTR Release Index](http://kametsu.com/topic/54803-the-ctr-index-your-new-home-for-bloated-1080p-dual-audio-releases/)** _~wouldn't be a CTR release without terrible QC~_ ![Image](http://kametsu.com/images/downloads/info.png) PROPER contains fixed subtitle desync on multiple episodes. Patches for originals available [here](https://mega.nz/#F!TIwBUb7R!Lsxw3iVe0ZoaQO125eYhKw). `<br></br>Video Track: 720p-Hi10p | 1080p-Hi10p (Glue | Shujinowski)<br></br><br></br>Audio Track 1 (Default): English 5.1 AAC | 5.1 FLAC (CTR)<br></br>Audio Track 2: Japanese 2.0 AAC | 2.0 FLAC (Glue | Shujinowski)<br></br><br></br>Subtitle Track 1 (Default): English Signs (.ASS) (Vivid)<br></br>Subtitle Track 2: English Dialogue (.ASS) (Vivid)<br></br>` Finally filling a longstanding request. I had all the materials still floating around outside my server, so I bumped this up the queue a bit. For this release, we've got 1080p 10bit video from Shujinowski, with the English audio ripped direct from the USBD by yours truly. 720p video (which will be a bit delayed, but I do have it queued up) is from Glue. Subtitles are from Vivid, using the batch and OP/ED as assembled by Glue. Finally, as it was dubbed, I included the recap episode (10.5). However, the recap was not encoded by Glue as far as I know; if I'm mistaken please point at it, or if not a suitable 720p version. Otherwise, grab the one from Shujin. There is one major change made on the USBD vs JPBD that I saw, which is that Funimation decided to include the ED in episode 1 playing over a black and white creditroll, with the footage prior to the credits being clean. I'm not sure why they chose to, since the original has a song playing over the end credits displayed on a montage over the end of the episode. This song and montage is still present in the dub, so I elected to just cut out Funimation's ED entirely. The montage will play and then go straight to the next episode preview, as was intended. General Unique ID : 172945226803721638492680799467307418321 (0x821C0A02B878C3F58A2C43AD5C1242D1) Complete name : S:\\Anime\\Blood Blockade Battlefront\\Season 1\\Blood.Blockade.Battlefront.S01E01.1080p-Hi10p.BluRay.FLAC5.1.x264-CTR.\[6FA47C8D\].mkv Format : Matroska Format version : Version 4 / Version 2 File size : 2.04 GiB Duration : 24 min 30 s Overall bit rate mode : Variable Overall bit rate : 11.9 Mb/s Encoded date : UTC 2016-10-22 21:22:23 Writing application : mkvmerge v9.5.0 ('Quiet Fire') 64bit Writing library : libebml v1.3.4 + libmatroska v1.4.5 Attachments : 321impact\_1.ttf / Apolline-Regular\_1.otf / blemished.ttf / BlueCentury-Regular.ttf / Cleric SSi Bold\_3.ttf / Dokyo\_1.ttf / FuturaStd-Heavy.otf / Street Freehand\_1.ttf / ufonts.com\_diverda-sans-com-medium.ttf / 321impact.ttf / Apolline-Regular.otf / blemished.ttf / BlueCentury-Regular.ttf / Cleric SSi Bold.ttf / Cleric SSi.ttf / Dokyo.ttf / OpenSans-Bold.ttf / OpenSans-BoldItalic.ttf / OpenSans-Italic.ttf / OpenSans-Regular.ttf / Street Freehand.ttf Video ID : 1 Format : AVC Format/Info : Advanced Video Codec Format profile : High 10@L4.1 Format settings, CABAC : Yes Format settings, ReFrames : 4 frames Codec ID : V\_MPEG4/ISO/AVC Duration : 24 min 30 s Bit rate : 9 450 kb/s Width : 1 920 pixels Height : 1 080 pixels Display aspect ratio : 16:9 Frame rate mode : Constant Frame rate : 23.976 (24000/1001) FPS Color space : YUV Chroma subsampling : 4:2:0 Bit depth : 10 bits Scan type : Progressive Bits/(Pixel\*Frame) : 0.190 Stream size : 1.62 GiB (80%) Title : \[Shujinowski\] Writing library : x264 core 146 r2538 121396c Encoding settings : Shujinowski Language : Japanese Default : Yes Forced : No Audio [\#1](//www.nyaa.se/?page=view&tid=1) ID : 2 Format : FLAC Format/Info : Free Lossless Audio Codec Codec ID : A\_FLAC Duration : 24 min 30 s Bit rate mode : Variable Bit rate : 1 618 kb/s Channel(s) : 6 channels Channel positions : Front: L C R, Side: L R, LFE Sampling rate : 48.0 kHz Frame rate : 11.719 FPS (4096 spf) Bit depth : 16 bits Stream size : 284 MiB (14%) Title : FLAC 5.1 \[CTR\] Writing library : libFLAC 1.3.1 (UTC 2014-11-25) Language : English Default : Yes Forced : No Audio [\#2](//www.nyaa.se/?page=view&tid=2) ID : 3 Format : FLAC Format/Info : Free Lossless Audio Codec Codec ID : A\_FLAC Duration : 24 min 30 s Bit rate mode : Variable Bit rate : 791 kb/s Channel(s) : 2 channels Channel positions : Front: L R Sampling rate : 48.0 kHz Frame rate : 11.719 FPS (4096 spf) Bit depth : 16 bits Stream size : 139 MiB (7%) Title : FLAC 2.0 \[Shujin\] Writing library : libFLAC 1.3.0 (UTC 2013-05-26) Language : Japanese Default : No Forced : No Text [\#1](//www.nyaa.se/?page=view&tid=1) ID : 4 Format : ASS Codec ID : S\_TEXT/ASS Codec ID/Info : Advanced Sub Station Alpha Duration : 22 min 20 s Bit rate : 2 894 b/s Count of elements : 2806 Compression mode : Lossless Stream size : 474 KiB (0%) Title : Signs \[Vivid\] Language : English Default : Yes Forced : No Text [\#2](//www.nyaa.se/?page=view&tid=2) ID : 5 Format : ASS Codec ID : S\_TEXT/ASS Codec ID/Info : Advanced Sub Station Alpha Duration : 24 min 20 s Bit rate : 2 786 b/s Count of elements : 3192 Compression mode : Lossless Stream size : 497 KiB (0%) Title : Subtitles \[Vivid\] Language : Japanese Default : No Forced : No Menu 00:00:00.000 : en:Prologue 00:02:18.012 : en:A-Part 00:10:18.034 : en:B-Part 00:24:00.063 : en:Preview **CTR Releases:** Collecting the best available sources around the internet and packing them up so you don't have to. My releases cater specifically to English audio viewers, though Japanese viewers are of course welcome. More details can be found on the individual release threads or at [my index](http://kametsu.com/topic/54803-the-ctr-index-your-new-home-for-bloated-1080p-dual-audio-releases/) on Kametsu, where you can also pitch me on whatever shows I go after next. Enjoy. -ctr

File list

  • Blood.Blockade.Battlefront.S01.PROPER.1080p-Hi10p.BluRay.FLAC5.1.x264-CTR
    • Blood.Blockade.Battlefront.S00E01.Even.These.Are.The.Worst.And.The.Best.Days.Ever.10.5.1080p-Hi10p.BluRay.FLAC5.1.x264-CTR.[D771A9BA].mkv (1.9 GiB)
    • Blood.Blockade.Battlefront.S01E01.1080p-Hi10p.BluRay.FLAC5.1.x264-CTR.[6FA47C8D].mkv (2.0 GiB)
    • Blood.Blockade.Battlefront.S01E02.1080p-Hi10p.BluRay.FLAC5.1.x264-CTR.[16C40518].mkv (2.1 GiB)
    • Blood.Blockade.Battlefront.S01E03.1080p-Hi10p.BluRay.FLAC5.1.x264-CTR.[1A741752].mkv (2.1 GiB)
    • Blood.Blockade.Battlefront.S01E04.1080p-Hi10p.BluRay.FLAC5.1.x264-CTR.[CA670366].mkv (2.2 GiB)
    • Blood.Blockade.Battlefront.S01E05.1080p-Hi10p.BluRay.FLAC5.1.x264-CTR.[B1C602DF].mkv (2.0 GiB)
    • Blood.Blockade.Battlefront.S01E06.1080p-Hi10p.BluRay.FLAC5.1.x264-CTR.[623A0B97].mkv (1.9 GiB)
    • Blood.Blockade.Battlefront.S01E07.PROPER.1080p-Hi10p.BluRay.FLAC5.1.x264-CTR.[71DB8521].mkv (1.8 GiB)
    • Blood.Blockade.Battlefront.S01E08.PROPER.1080p-Hi10p.BluRay.FLAC5.1.x264-CTR.[9531478A].mkv (2.3 GiB)
    • Blood.Blockade.Battlefront.S01E09.PROPER.1080p-Hi10p.BluRay.FLAC5.1.x264-CTR.[CDB477D1].mkv (2.0 GiB)
    • Blood.Blockade.Battlefront.S01E10.1080p-Hi10p.BluRay.FLAC5.1.x264-CTR.[1189B941].mkv (1.9 GiB)
    • Blood.Blockade.Battlefront.S01E11.PROPER.1080p-Hi10p.BluRay.FLAC5.1.x264-CTR.[D51C6FDD].mkv (1.7 GiB)
    • Blood.Blockade.Battlefront.S01E12.1080p-Hi10p.BluRay.FLAC5.1.x264-CTR.[B851F890].mkv (3.2 GiB)
Any chance I could get just the subtitles files? I had to re-encode to 8bit to play on my media player but it kinda screwed up on the subtitles. ;p
cant play files need anything in specific regarding codecs ? edit. ok i managed to play them something wrong with my codecs.