Eden of the East S01 1080p Hi10p BluRay FLAC5.1 x264 [CTR] (English Dubbed Dual Audio) (Higashi no Eden) (Includes movies)

Category:
Date:
2016-09-30 19:15 UTC
Submitter:
Seeders:
0
File size:
27.6 GiB
Completed:
22
Info hash:
7ef5d6d520c70ad2da813af1ad3a08b8c887568e
![Image](https://i.gyazo.com/50ea065d7308c4b7edca58bb2e75e2de.png) **[Release Thread](http://kametsu.com/topic/55734-megatorrent-ctr-eden-of-the-east-bd-1080p-10bitflac51-dual-audio-production-value/) | [CTR Release Index](http://kametsu.com/topic/54803-the-ctr-index-your-new-home-for-bloated-1080p-dual-audio-releases/)** _~magic flip phones~_ ![Image](http://kametsu.com/images/downloads/info.png) `<br></br>Video Track: 1080p-Hi10p (Yousei-Raws (series), lleur (films))<br></br><br></br>Audio Track 1 (Default): English 5.1 FLAC (CTR)<br></br>Audio Track 2: Japanese 5.1 FLAC (Yousei-Raws, CTR)<br></br><br></br>Subtitle Track 1 (Default): English Signs (.ASS) (Coalgirls)<br></br>Subtitle Track 2: English Dialogue (.ASS) (Coalgirls)<br></br><br></br>Chapters<br></br>` **UPDATE (01/10/2016):** Japanese audio on episode 2 was desynced. Patches available here: [MEGA](https://mega.nz/#F!7MQjnAYK!IiDdmxH5t-QLIXYk31Qfag) It's really not a great show, though it had the potential to be. Fantastic work from Production I.G. couldn't save this plot. Still, I think it's worth watching the main show anyway. For this release, we've got Yousei-Raws video for the main TV series, a very nice looking 10-bit encode. I've brought fresh English 5.1 audio to join Yousei's, and I've spliced in the OP for every episode instead of just the first, as in the original USBD release (which could not get licensing rights for the song past one episode). Thus, you get to enjoy one of the best OP sequences in anime every time you start an episode. Subtitles come from Coalgirls 1080p release retimed for non-ordered chapters, which are a combination/re-edit of Frostii's R1 script and gg's typesetting for signs. Now, there are also two movies attached to this show, and they didn't have a definitive release either. I've chosenlleur's1080p 10-bit release here. This release was already dual-audio, but I've upgraded it with new lossless audio and Coalgirls' subtitles again, this time sourced from Commie for the first movie and Translatorgasm for the second. General Unique ID : 207967544189056564571304650771878831464 (0x9C751792A62CA9029FEE4458A2EEE568) Complete name : S:\\Anime\\Eden of the East\\Eden.of.the.East.S01.1080p-Hi10p.BluRay.FLAC5.1.x264-CTR\\Eden.of.the.East.S01E01.1080p-Hi10p.BluRay.FLAC5.1.x264-CTR.\[30BF25C7\].mkv Format : Matroska Format version : Version 4 / Version 2 File size : 1.65 GiB Duration : 22 min 32 s Overall bit rate mode : Variable Overall bit rate : 10.5 Mb/s Movie name : lleur 2015 Encoded date : UTC 2016-09-28 01:29:06 Writing application : mkvmerge v9.4.2 ('So High') 64bit Writing library : libebml v1.3.4 + libmatroska v1.4.5 Attachments : AbsaraSans-Medium.otf / ABSCI\_\_\_.TTF / CALIBRI.TTF / CALIBRIB.TTF / CALIBRII.TTF / CALIBRIZ.TTF / FILOBOLD.TTF / georgia.ttf / I\_Did\_This.ttf Video ID : 1 Format : AVC Format/Info : Advanced Video Codec Format profile : High 10@L4.1 Format settings, CABAC : Yes Format settings, ReFrames : 4 frames Codec ID : V\_MPEG4/ISO/AVC Duration : 22 min 32 s Bit rate : 7 453 kb/s Width : 1 920 pixels Height : 1 080 pixels Display aspect ratio : 16:9 Frame rate mode : Constant Frame rate : 23.976 (24000/1001) FPS Color space : YUV Chroma subsampling : 4:2:0 Bit depth : 10 bits Scan type : Progressive Bits/(Pixel\*Frame) : 0.150 Stream size : 1.17 GiB (71%) Title : \[Yousei-Raws\] Writing library : x264 core 120 r2120+639 552713c Encoding settings : cabac=1 / ref=4 / deblock=1:-2:-2 / analyse=0x3:0x133 / me=umh / subme=9 / psy=1 / fade\_compensate=0.00 / psy\_rd=0.80:0.00 / mixed\_ref=1 / me\_range=24 / chroma\_me=1 / trellis=2 / 8x8dct=1 / cqm=0 / deadzone=21,11 / fast\_pskip=1 / chroma\_qp\_offset=-2 / threads=12 / sliced\_threads=0 / nr=0 / decimate=0 / interlaced=0 / bluray\_compat=0 / constrained\_intra=0 / fgo=0 / bframes=8 / b\_pyramid=2 / b\_adapt=2 / b\_bias=0 / direct=3 / weightb=1 / open\_gop=0 / weightp=2 / keyint=250 / keyint\_min=23 / scenecut=40 / intra\_refresh=0 / rc=2pass / mbtree=0 / bitrate=7453 / ratetol=1.0 / qcomp=0.80 / qpmin=8 / qpmax=38 / qpstep=4 / cplxblur=20.0 / qblur=0.5 / ip\_ratio=1.40 / pb\_ratio=1.30 / aq=1:1.00 Language : Japanese Default : No Forced : No Audio [\#1](//www.nyaa.se/?page=view&tid=1) ID : 2 Format : FLAC Format/Info : Free Lossless Audio Codec Codec ID : A\_FLAC Duration : 22 min 32 s Bit rate mode : Variable Bit rate : 1 504 kb/s Channel(s) : 6 channels Channel positions : Front: L C R, Side: L R, LFE Sampling rate : 48.0 kHz Frame rate : 11.719 FPS (4096 spf) Bit depth : 16 bits Delay relative to video : 24 ms Stream size : 242 MiB (14%) Title : FLAC 5.1 \[CTR\] Writing library : libFLAC 1.2.1 (UTC 2007-09-17) Language : English Default : Yes Forced : No Audio [\#2](//www.nyaa.se/?page=view&tid=2) ID : 3 Format : FLAC Format/Info : Free Lossless Audio Codec Codec ID : A\_FLAC Duration : 22 min 32 s Bit rate mode : Variable Bit rate : 1 510 kb/s Channel(s) : 6 channels Channel positions : Front: L C R, Side: L R, LFE Sampling rate : 48.0 kHz Frame rate : 11.719 FPS (4096 spf) Bit depth : 16 bits Stream size : 243 MiB (14%) Title : FLAC 5.1 \[Yousei\] Writing library : libFLAC 1.2.1 (UTC 2007-09-17) Language : Japanese Default : No Forced : No Text [\#1](//www.nyaa.se/?page=view&tid=1) ID : 4 Format : ASS Codec ID : S\_TEXT/ASS Codec ID/Info : Advanced Sub Station Alpha Duration : 19 min 30 s Bit rate : 26 b/s Count of elements : 41 Compression mode : Lossless Stream size : 3.74 KiB (0%) Title : Signs \[Coalgirls\] Language : English Default : Yes Forced : No Text [\#2](//www.nyaa.se/?page=view&tid=2) ID : 5 Format : ASS Codec ID : S\_TEXT/ASS Codec ID/Info : Advanced Sub Station Alpha Duration : 22 min 22 s Bit rate : 117 b/s Count of elements : 279 Compression mode : Lossless Stream size : 19.2 KiB (0%) Title : Subtitles \[Coalgirls\] Language : Japanese Default : No Forced : No Menu 00:00:00.000 : en:AVANT 00:00:30.030 : en:OPENING 00:01:50.110 : en:PART A 00:12:54.774 : en:PART B 00:21:11.270 : en:ENDING **CTR Releases:** Collecting the best available sources around the internet and packing them up so you don't have to. My releases cater specifically to English audio viewers, though Japanese viewers are of course welcome. More details can be found on the individual release threads or at [my index](http://kametsu.com/topic/54803-the-ctr-index-your-new-home-for-bloated-1080p-dual-audio-releases/) on Kametsu, where you can also pitch me on whatever shows I go after next. Enjoy. -ctr

File list

  • Eden.of.the.East.S01.1080p-Hi10p.BluRay.FLAC5.1.x264-CTR
    • Eden.of.the.East.S00E02.The.King.Of.Eden.1080p-Hi10p.BluRay.FLAC5.1.x264-CTR.[A93760C9].mkv (3.9 GiB)
    • Eden.of.the.East.S00E03.Paradise.Lost.1080p-Hi10p.BluRay.FLAC5.1.x264-CTR.[E76D9C30].mkv (5.4 GiB)
    • Eden.of.the.East.S01E01.1080p-Hi10p.BluRay.FLAC5.1.x264-CTR.[30BF25C7].mkv (1.6 GiB)
    • Eden.of.the.East.S01E02.1080p-Hi10p.BluRay.FLAC5.1.x264-CTR.[FA222795].mkv (1.6 GiB)
    • Eden.of.the.East.S01E03.1080p-Hi10p.BluRay.FLAC5.1.x264-CTR.[822196E7].mkv (1.6 GiB)
    • Eden.of.the.East.S01E04.1080p-Hi10p.BluRay.FLAC5.1.x264-CTR.[1CDA1F5E].mkv (1.8 GiB)
    • Eden.of.the.East.S01E05.1080p-Hi10p.BluRay.FLAC5.1.x264-CTR.[6321AC95].mkv (1.7 GiB)
    • Eden.of.the.East.S01E06.1080p-Hi10p.BluRay.FLAC5.1.x264-CTR.[3890E9EB].mkv (1.2 GiB)
    • Eden.of.the.East.S01E07.1080p-Hi10p.BluRay.FLAC5.1.x264-CTR.[56F0FE92].mkv (1.7 GiB)
    • Eden.of.the.East.S01E08.1080p-Hi10p.BluRay.FLAC5.1.x264-CTR.[6E0B9117].mkv (1.7 GiB)
    • Eden.of.the.East.S01E09.1080p-Hi10p.BluRay.FLAC5.1.x264-CTR.[F6D768BC].mkv (1.6 GiB)
    • Eden.of.the.East.S01E10.1080p-Hi10p.BluRay.FLAC5.1.x264-CTR.[0C7B1877].mkv (1.7 GiB)
    • Eden.of.the.East.S01E11.1080p-Hi10p.BluRay.FLAC5.1.x264-CTR.[4F223B19].mkv (1.8 GiB)